Profileschool - Photoshop - Curves. Работа с кривыми (2013)

Ответить на тему
 
Автор Сообщение

Yulya ®

-Profileschool - Photoshop - Curves. Работа с кривыми (2013)- Автор (режиссер): profileschool
Жанр: Мастер - класс
Преподаватель: Андрей Журавлев
Продолжительность: 03:34:50
Качество видео: PCRec
Видеокодек: MPEG4 Video
Битрейт видео: ~25fps 251kbps
Размер кадра: 1232x768
Аудиокодек: AAC
Битрейт аудио: 44100Hz stereo 151kbps
Доп. материалы: Имеются
Описание:
Тоновые кривые (Curves) — один из самых мощных и, без сомнения, самый часто используемый инструмент из арсенала цветокорректора. Обработка изображения начинается с установки цветового баланса. Далее производится повышение контраста сюжетно-значимых элементов изображения. Все это делается кривыми. Они применяются не только для обработки изображения, но и для доработки масок и заготовок для смешивания каналов и наложения в различных режимах.
Мы предлагаем вам познакомится с этим замечательным инструментом и основными приемами работы с ним. Конечно, настоящее освоение произойдет только в результате самостоятельных практических занятий. Но, понимание логики работы и применения кривых существенно ускорит этот процесс.

Дополнительная информация:

MI

Общее
Полное имя : D:\Торренты\ProfileSchool-curves\Видео.mp4
Формат : MPEG-4
Профиль формата : Base Media
Идентификатор кодека : isom
Размер файла : 626 Мбайт
Продолжительность : 3 ч. 34 м.
Режим общего битрейта : Переменный
Общий поток : 407 Кбит/сек
Программа кодирования : AVM.EXE
Видео
Идентификатор : 1
Формат : MPEG-4 Visual
Профиль формата : Simple@L1
Параметр BVOP формата : Нет
Параметр QPel формата : Нет
Параметр GMC формата : Без точки перехода
Параметр матрицы формата : Default (H.263)
Идентификатор кодека : 20
Продолжительность : 3 ч. 34 м.
Битрейт : 251 Кбит/сек
Ширина : 1232 пикселя
Высота : 768 пикселей
Соотношение сторон : 1,604
Режим частоты кадров : Переменный
Частота кадров : 25,000 кадров/сек
Минимальная частота кадров : 12,500 кадров/сек
Максимальная частота кадров : 25,000 кадров/сек
Цветовое пространство : YUV
Субдискретизация насыщенности : 4:2:0
Битовая глубина : 8 бит
Тип развёртки : Прогрессивная
Метод сжатия : С потерями
Бит/(Пиксели*Кадры) : 0.011
Размер потока : 387 Мбайт (62%)
Библиотека кодирования : Lavc52.72.2
Аудио
Идентификатор : 2
Формат : AAC
Формат/Информация : Advanced Audio Codec
Профиль формата : LC
Идентификатор кодека : 40
Продолжительность : 3 ч. 34 м.
Вид битрейта : Переменный
Битрейт : 151 Кбит/сек
Каналы : 2 канала
Расположение каналов : Front: L R
Частота : 44,1 КГц
Метод сжатия : С потерями
Размер потока : 232 Мбайт (37%)
Скриншоты:
Скачать .torrent

Для того, чтобы скачать торрент-файл

Profileschool - Photoshop - Curves. Работа с кривыми (2013)

с нашего сайта, Вам необходимо Войти на сайт под своим логином! Если у Вас ещё нет логина, тогда Вам нужно сначала Зарегистрироваться!

Как скачивать? · Что такое торрент? · Рейтинг и ограничения

Показать сообщения:    
Ответить на тему

Profileschool - Photoshop - Curves. Работа с кривыми (2013) скачать торрент (torrent), видеоуроки, тренинги, обучающее видео и видеокурсы

Текущее время: Сегодня 23:44

Часовой пояс: GMT + 4



Вы не можете начинать темы
Вы не можете отвечать на сообщения
Вы не можете редактировать свои сообщения
Вы не можете удалять свои сообщения
Вы не можете голосовать в опросах
Вы не можете прикреплять файлы к сообщениям
Вы не можете скачивать файлы