Специалист - Microsoft Excel 2013/2010. Уровень 4 и Уровень 5 (VBA) [2014]

Ответить на тему
 
Автор Сообщение

Yulya ®

-Специалист - Microsoft Excel 2013/2010. Уровень 4 и Уровень 5 (VBA) [2014]- Автор (режиссер): Специалист
Жанр: Обучающие видео-уроки
Продолжительность: 25:08:41
Качество видео: PCRec
Видеокодек: MPEG-4
Битрейт видео: ~40-50 kbps
Размер кадра: 1024х768, 1360х768
Аудиокодек: AAC, 2 channels
Битрейт аудио: 64 kbps
Доп. материалы: Есть
Описание:
Курс рассчитан на специалистов, постоянно использующих Excel в повседневной профессиональной деятельности и желающих научиться разбирать программный код на VBA и самостоятельно программировать макросы, что позволит автоматически выполнять повторяющиеся рутинные действия, сэкономит время и повысит эффективность труда.
Эти курсы читают только сертифицированные тренеры Microsoft!

Уровень 4:

Наибольшее количество прикладных задач, требующих использования макросов, возникает при работе с электронными таблицами Excel. Опытные пользователи могут самостоятельно справиться с вопросами автоматизации Microsoft Excel 2013/2010, если освоят возможности программирования макросов на VBA.
Основные команды языка VBA и базовые объекты Excel совместимы на уровне макросов с предыдущими версиями Excel, поэтому полученные на курсе знания и навыки программирования макросов можно будет с успехом применять как в Microsoft Excel 2013/2010, так и в более ранних версиях Microsoft Excel 2007/2003.
Цель курса:
По окончании курса Вы будете уметь:
Использовать автоматическую запись макроса в Excel и исправлять недостатки автоматически генерируемого программного кода
Создавать проекты в редакторе VBA, редактировать, отлаживать и выполнять программный код
Программировать работу с переменными, условные переходы и циклы, диалоги для ввода значений и вывода сообщений
Программировать доступ и управление объектами Excel (таким, как рабочая книга, рабочие листы и диапазоны ячеек)
Создавать и применять пользовательские функции
Продолжительность курса - 24 ак. ч.

Уровень 5:

В новейшей версии Microsoft Office 2013 встроенный язык программирования Visual Basic for Applications (VBA) по-прежнему остается основным наиважнейшим средством автоматизации работы пользователей с офисными приложениями.
Наибольшее количество прикладных задач, которые невозможно реализовать без макросов, возникает при работе с электронными таблицами Excel.
Программа курса ориентирована на опытных пользователей Microsoft Office Excel 2013/2010 с начальным опытом создания макросов на языке программирования Visual Basic for Applications (VBA) в среде Microsoft Excel. В курсе рассматриваются вопросы автоматизации обработки множества рабочих файлов, организации доступа к базам данных, создания диалоговых окон для конечного пользователя и оформления проекта VBA в виде надстройки Excel.
Основные команды языка VBA и базовые объекты Excel совместимы на уровне макросов с предыдущими версиями Excel, поэтому большинство полученных на курсе знаний и навыков программирования макросов можно будет с успехом применять как в Microsoft Excel 2013/2010, так и в более ранних версиях Microsoft Excel 2007/2003.
По окончании курса Вы будете уметь:
программировать сложные процедуры с вложенными циклами, использующие массивы переменных
автоматизировать работу с файловой системой, использовать диалоги для выбора файлов и папок
автоматизировать создания cводных таблиц
создавать пользовательские формы для организации диалоговых окон для работы пользователей
создавать надстройки Microsoft Excel 2013/2010 с помощью VBA
Продолжительность курса - 16 ак. ч.

MediaInfo:

Код:
Общее
Полное имя                               : D:\...\Специалист Excel Уровень 4 и Уровень 5 (VBA)\[Специалист] Excel. Уровень 4\1_1.mp4
Формат                                   : MPEG-4
Профиль формата                          : Base Media / Version 2
Идентификатор кодека                     : mp42
Размер файла                             : 65,6 Мбайт
Продолжительность                        : 1 ч. 24 м.
Режим общего битрейта                    : Переменный
Общий поток                              : 108 Кбит/сек
Видео
Идентификатор                            : 1
Формат                                   : AVC
Формат/Информация                        : Advanced Video Codec
Профиль формата                          : [url=mailto:High@L3.1]High@L3.1[/url]
Параметр CABAC формата                   : Да
Параметр ReFrames формата                : 4 кадра
Идентификатор кодека                     : avc1
Идентификатор кодека/Информация          : Advanced Video Coding
Продолжительность                        : 1 ч. 24 м.
Битрейт                                  : 40,0 Кбит/сек
Ширина                                   : 1024 пикселя
Высота                                   : 768 пикселей
Соотношение сторон                       : 4:3
Режим частоты кадров                     : Переменный
Частота кадров                           : 15,000 кадров/сек
Минимальная частота кадров               : 15,000 кадров/сек
Максимальная частота кадров              : 15,003 кадров/сек
Цветовое пространство                    : YUV
Субдискретизация насыщенности            : 4:2:0
Битовая глубина                          : 8 бит
Тип развёртки                            : Прогрессивная
Бит/(Пиксели*Кадры)                      : 0.003
Размер потока                            : 24,2 Мбайт (37%)
Библиотека кодирования                   : x264 core 125 r2200 999b753
Настройки программы                      : cabac=1 / ref=3 / deblock=1:0:0 / analyse=0x3:0x113 / me=hex / subme=7 / psy=1 / psy_rd=1.00:0.00 / mixed_ref=1 / me_range=16 / chroma_me=1 / trellis=1 / 8x8dct=1 / cqm=0 / deadzone=21,11 / fast_pskip=1 / chroma_qp_offset=-2 / threads=6 / lookahead_threads=1 / sliced_threads=0 / nr=0 / decimate=1 / interlaced=0 / bluray_compat=0 / constrained_intra=0 / bframes=3 / b_pyramid=2 / b_adapt=1 / b_bias=0 / direct=1 / weightb=1 / open_gop=0 / weightp=2 / keyint=250 / keyint_min=15 / scenecut=40 / intra_refresh=0 / rc_lookahead=40 / rc=2pass / mbtree=1 / bitrate=40 / ratetol=1.0 / qcomp=0.60 / qpmin=0 / qpmax=69 / qpstep=4 / cplxblur=20.0 / qblur=0.5 / ip_ratio=1.40 / aq=1:1.00
Язык                                     : English
Аудио
Идентификатор                            : 2
Формат                                   : AAC
Формат/Информация                        : Advanced Audio Codec
Профиль формата                          : LC
Идентификатор кодека                     : 40
Продолжительность                        : 1 ч. 24 м.
Вид битрейта                             : Переменный
Битрейт                                  : 64,0 Кбит/сек
Каналы                                   : 2 канала
Расположение каналов                     : Front: L R
Частота                                  : 44,1 КГц
Метод сжатия                             : С потерями
Размер потока                            : 38,7 Мбайт (59%)
Язык                                     : English
Код:
Общее
Полное имя                               : D:\...\Специалист Excel Уровень 4 и Уровень 5 (VBA)\[Специалист] Excel. Уровень 5\4_1.mp4
Формат                                   : MPEG-4
Профиль формата                          : Base Media / Version 2
Идентификатор кодека                     : mp42
Размер файла                             : 84,2 Мбайт
Продолжительность                        : 1 ч. 39 м.
Режим общего битрейта                    : Переменный
Общий поток                              : 119 Кбит/сек
Видео
Идентификатор                            : 1
Формат                                   : AVC
Формат/Информация                        : Advanced Video Codec
Профиль формата                          : [url=mailto:High@L3.2]High@L3.2[/url]
Параметр CABAC формата                   : Да
Параметр ReFrames формата                : 4 кадра
Идентификатор кодека                     : avc1
Идентификатор кодека/Информация          : Advanced Video Coding
Продолжительность                        : 1 ч. 39 м.
Продолжительность оригинала              : 1 ч. 39 м.
Битрейт                                  : 50,0 Кбит/сек
Ширина                                   : 1360 пикселей
Высота                                   : 768 пикселей
Соотношение сторон                       : 16:9
Режим частоты кадров                     : Переменный
Частота кадров                           : 15,000 кадров/сек
Минимальная частота кадров               : 15,000 кадров/сек
Максимальная частота кадров              : 15,003 кадров/сек
Цветовое пространство                    : YUV
Субдискретизация насыщенности            : 4:2:0
Битовая глубина                          : 8 бит
Тип развёртки                            : Прогрессивная
Бит/(Пиксели*Кадры)                      : 0.003
Размер потока                            : 35,6 Мбайт (42%)
Размер потока оригинала                  : 35,6 Мбайт (42%)
Библиотека кодирования                   : x264 core 125 r2200 999b753
Настройки программы                      : cabac=1 / ref=3 / deblock=1:0:0 / analyse=0x3:0x113 / me=hex / subme=7 / psy=1 / psy_rd=1.00:0.00 / mixed_ref=1 / me_range=16 / chroma_me=1 / trellis=1 / 8x8dct=1 / cqm=0 / deadzone=21,11 / fast_pskip=1 / chroma_qp_offset=-2 / threads=6 / lookahead_threads=1 / sliced_threads=0 / nr=0 / decimate=1 / interlaced=0 / bluray_compat=0 / constrained_intra=0 / bframes=3 / b_pyramid=2 / b_adapt=1 / b_bias=0 / direct=1 / weightb=1 / open_gop=0 / weightp=2 / keyint=250 / keyint_min=15 / scenecut=40 / intra_refresh=0 / rc_lookahead=40 / rc=2pass / mbtree=1 / bitrate=50 / ratetol=1.0 / qcomp=0.60 / qpmin=0 / qpmax=69 / qpstep=4 / cplxblur=20.0 / qblur=0.5 / ip_ratio=1.40 / aq=1:1.00
Язык                                     : English
mdhd_Duration                            : 5958861
Аудио
Идентификатор                            : 2
Формат                                   : AAC
Формат/Информация                        : Advanced Audio Codec
Профиль формата                          : LC
Идентификатор кодека                     : 40
Продолжительность                        : 1 ч. 39 м.
Вид битрейта                             : Переменный
Битрейт                                  : 64,0 Кбит/сек
Каналы                                   : 2 канала
Расположение каналов                     : Front: L R
Частота                                  : 44,1 КГц
Метод сжатия                             : С потерями
Размер потока                            : 45,5 Мбайт (54%)
Язык                                     : English
Скриншоты:
Скачать .torrent

Для того, чтобы скачать торрент-файл

Специалист - Microsoft Excel 2013/2010. Уровень 4 и Уровень 5 (VBA) [2014]

с нашего сайта, Вам необходимо Войти на сайт под своим логином! Если у Вас ещё нет логина, тогда Вам нужно сначала Зарегистрироваться!

Как скачивать? · Что такое торрент? · Рейтинг и ограничения

Показать сообщения:    
Ответить на тему

Специалист - Microsoft Excel 2013/2010. Уровень 4 и Уровень 5 (VBA) [2014] скачать торрент (torrent), видеоуроки, тренинги, обучающее видео и видеокурсы

Текущее время: Сегодня 13:06

Часовой пояс: GMT + 4



Вы не можете начинать темы
Вы не можете отвечать на сообщения
Вы не можете редактировать свои сообщения
Вы не можете удалять свои сообщения
Вы не можете голосовать в опросах
Вы не можете прикреплять файлы к сообщениям
Вы не можете скачивать файлы