Давид Бояров - Видеокурс ADO.NET CyberBionic Systematics [CBS ITVDN] (2014)

Ответить на тему
 
Автор Сообщение

Yulya ®

-Давид Бояров - Видеокурс ADO.NET CyberBionic Systematics [CBS ITVDN] (2014)- Автор (режиссер): Давид Бояров
Жанр: Обучающие видео
Язык: Русский
Продолжительность: 09:36:09
Качество видео: PCRec
Видеокодек: mp4
Битрейт видео: ~739 kb/s, 15 FPS
Размер кадра: 1280 x 720
Аудиокодек: AC3 2.0
Битрейт аудио: 80 kb/s, AAS, 2ch, 44,1 Hz
Описание:
Все современные бизнес приложения не могут обойтись без базы данных, так как объем информации, которым необходимо оперировать, обычно слишком велик и обойтись простыми файлами в такой ситуации не получается. Видеокурс по технологии ADO.NET даст Вам необходимые знания для построения приложений работающих с базами данных. Вы научитесь подключаться к базе данных, извлекать значения из таблиц с помощью SQL запросов, хранить данные в автономных объектах ADO.NET и многое другое.
Видео уроки по технологии ADO.NET помогут Вам научиться создавать приложения, работающие с различными базами данных

Содержание курса :

Урок 1. Архитектура технологии ADO.NET, подключаемая часть архитектуры
Введение в архитектуру технологии ADO.NET. Способы подключения к базе данных и основные типы данных для разработки приложений с использованием ADO.NET
Урок 2. Получение данных. Объект SqlCommand.
На данном уроке Вы узнаете как создать запрос используя класс SqlCommand и получить данные из БД используя SqlDataReader. Также Вы рассмотрите вопросы безопасности связанные с выполнение запросов.
Урок 3. Автономная часть архитектуры. Объекты DataColumn, DataTable
Использование классов для создания виртуальных таблиц в памяти приложения. Различные настройки классов DataTable, DataRow, DataColumn.
Урок 4. Классы DataRow, DataSet и DataAdapter
Продолжение предыдущего урока. На этом уроке вы научитесь копировать данные из базы в объекты автономной модели технологии ADO.NET изучите особенности работы с классами DataAdapter, DataTableMaping, DataColumnMapping.
Урок 5. Работа с реляционными данными. Объект DataRelation
На этом уроке Вы научитесь работать со связанными таблицами. Вы научитесь создавать отношения между таблицами используя класс DataRelation и работать с методами для получения информации о дочерних и родительских строках.
Урок 6. Фильтрация изменений и сортировка данных.
На уроке Вы изучите возможности класса DataTable для фильтрования и поиска данных. Также Вы изучите класс DataView, который позволяет работать с данными находящимися в таблице.
Урок 7. Объект DataSet со строгим контролем типов
После прохождения данного урока Вы сможете использовать строго типизированный DataSet и использовать его для работы с источником данных. Вы узнаете преимущества и недостатки строго типизированного DataSet
Урок 8. Передача обновлений
На этом уроке будут рассмотрены способы передачи обновленной информации в базу данных. Также Вы узнаете, как использовать транзакции для гарантирования корректного изменения источника данных.
Длительность: 8 уроков - 7 ч. 51 м.

Media Info

Общее
Полное имя : D:\Фильмы\Документальные\Обработанные\CyberBionic ADO.NET_nnm-club.me\[ITVDN] ADO.NET\Урок№1.mp4
Формат : MPEG-4
Профиль формата : Base Media / Version 2
Идентификатор кодека : mp42
Размер файла : 329 Мбайт
Продолжительность : 55 м.
Общий поток : 821 Кбит/сек
Дата кодирования : UTC 2014-07-27 09:28:13
Дата пометки : UTC 2014-07-27 09:28:13
Видео
Идентификатор : 2
Формат : AVC
Формат/Информация : Advanced Video Codec
Профиль формата : [url=mailto:Baseline@L3.2]Baseline@L3.2[/url]
Параметр CABAC формата : Нет
Параметр ReFrames формата : 2 кадра
Параметр GOP формата : M=1, N=15
Идентификатор кодека : avc1
Идентификатор кодека/Информация : Advanced Video Coding
Продолжительность : 55 м.
Битрейт : 739 Кбит/сек
Ширина : 1280 пикселей
Высота : 720 пикселей
Соотношение сторон : 16:9
Режим частоты кадров : Постоянный
Частота кадров : 15,000 кадров/сек
Стандарт вещания : NTSC
Цветовое пространство : YUV
Субдискретизация насыщенности : 4:2:0
Битовая глубина : 8 бит
Тип развёртки : Прогрессивная
Бит/(Пиксели*Кадры) : 0.053
Размер потока : 296 Мбайт (90%)
Язык : English
Дата кодирования : UTC 2014-07-27 09:28:13
Дата пометки : UTC 2014-07-27 09:28:13
Аудио
Идентификатор : 1
Формат : AAC
Формат/Информация : Advanced Audio Codec
Профиль формата : LC
Идентификатор кодека : 40
Продолжительность : 55 м.
Вид битрейта : Постоянный
Битрейт : 80,0 Кбит/сек
Каналы : channel0
Channel(s)_Original : 2 канала
Расположение каналов : Front: L R
Частота : 44,1 КГц
Метод сжатия : С потерями
Размер потока : 32,0 Мбайт (10%)
Язык : English
Дата кодирования : UTC 2014-07-27 09:28:13
Дата пометки : UTC 2014-07-27 09:28:13
Скриншоты:
Скачать .torrent

Для того, чтобы скачать торрент-файл

Давид Бояров - Видеокурс ADO.NET CyberBionic Systematics [CBS ITVDN] (2014)

с нашего сайта, Вам необходимо Войти на сайт под своим логином! Если у Вас ещё нет логина, тогда Вам нужно сначала Зарегистрироваться!

Как скачивать? · Что такое торрент? · Рейтинг и ограничения

Показать сообщения:    
Ответить на тему

Давид Бояров - Видеокурс ADO.NET CyberBionic Systematics [CBS ITVDN] (2014) скачать торрент (torrent), видеоуроки, тренинги, обучающее видео и видеокурсы

Текущее время: Сегодня 15:39

Часовой пояс: GMT + 4



Вы не можете начинать темы
Вы не можете отвечать на сообщения
Вы не можете редактировать свои сообщения
Вы не можете удалять свои сообщения
Вы не можете голосовать в опросах
Вы не можете прикреплять файлы к сообщениям
Вы не можете скачивать файлы