Специалист - Межсетевое взаимодействие в сетях на базе TCP/IP (2013)

Ответить на тему
 
Автор Сообщение

Yulya ®

-Специалист - Межсетевое взаимодействие в сетях на базе TCP/IP (2013)- Автор (режиссер): Специалист
Жанр: Сетевые технологии
Продолжительность: 16:10:38
Качество видео: PCRec
Видеокодек: G2M4
Битрейт видео: ~27 600 kb/s, 29,970 FPS
Размер кадра: 1024x768
Аудиокодек: WMA
Битрейт аудио: 48,0 kb/s (CBR), 1 Ch, 44100 Hz
Описание:
Вы научитесь разрабатывать сети на базе TCP/IP и управлять ими, идентифицировать компоненты сетевой инфраструктуры, осуществлять мониторинг и анализировать производительность сети. Курс TCP/IP также будет полезен тем, кто обладает знаниями в объёме программы, но хочет их систематизировать, а также повысить свою эффективность за счёт новых приёмов и методов работы.
Особое место в процессе обучения занимает настройка TCP/IP, так как протокол TCP/IP был, есть и будет связующим звеном между глобальной сетью Internet и World Wide Web.
Чтобы хорошо разбираться в сетевых технологиях, вам придется познакомиться с TCP/IP. И если вы хотите понять, что это такое и как оно работает, для чего применяется и для чего вообще нужно, но всего лишь не знаете, с чего начать, то этот курс по настройке TCP/IP для Вас!

Программа курса

  • Модуль 1. Инфраструктура Интернет.
  • Модуль 2. Архитектура TCP/IP.
  • Модуль 3. Адресация в Интернет.
  • Модуль 4. Сетевой уровень.
  • Модуль 5. Интернет уровень.
  • Модуль 6. Транспортный уровень.
  • Модуль 7. Служба имен доменов (DNS).
  • Модуль 8. Динамическое распределение адресов и других параметров в TCP/IP.
  • Модуль 9. Маршрутизация.
  • Модуль 10. Средства поиска и устранения неисправностей TCP/IP.
  • Модуль 11. Поиск и устранение неисправностей в сети TCP/IP.
  • Модуль 12. Управление сетью.
  • Модуль 13. SNMP – простейший протокол управления сетью.
  • Модуль 14. База данных Management Information Base (MIB).
  • Модуль 15. Работа с SNMP в масштабах предприятия.
  • Модуль 16. Введение в IPv6.
  • Модуль 17. Заголовок и расширения заголовка в IPv6.
  • Модуль 18. Архитектура адресов в IPv6.
  • Модуль 19. Упрощенное управление сетью в IPv6.
  • Модуль 20. Переход к IPv6.

Цель курса:

Научиться определять сетевую архитектуру, разрабатывать и обслуживать сети в масштабах предприятия на базе TCP/IP.
Курс предназначен для инженеров по сетевым технологиям, архитекторов сетей, администраторов сетей LAN/WAN, системных администраторов и менеджеров, администраторов интранет-сетей.

По окончании курса Вы будете уметь:

  • Разрабатывать, управлять, искать и устранять неисправности в сети в масштабах предприятия на базе TCP/IP
  • Самостоятельно определять сетевую архитектуру
  • Грамотно идентифицировать компоненты сетевой инфраструктуры
  • Эффективно осуществлять мониторинг и анализировать производительность сети

MediaInfo:

Общее
Полное имя : D:\Загрузки\Межсетевое взаимодействие в сетях на базе TCPIP [2013]\wms.wmv
Формат : Windows Media
Размер файла : 239 Мбайт
Продолжительность : 3 ч. 44 м.
Режим общего битрейта : Переменный
Общий поток : 149 Кбит/сек
Максимальный общий битрейт : 27,9 Мбит/сек
Дата кодирования : UTC 2013-05-30 11:47:31.525
Видео
Идентификатор : 3
Формат : G2M4
Идентификатор кодека : G2M4
Продолжительность : 3 ч. 44 м.
Вид битрейта : Переменный
Битрейт : 27,6 Мбит/сек
Ширина : 1024 пикселя
Высота : 768 пикселей
Соотношение сторон : 4:3
Частота кадров : 29,970 кадров/сек
Битовая глубина : 8 бит
Бит/(Пиксели*Кадры) : 1.173
Размер потока : 43,3 Гбайт
Аудио
Идентификатор : 1
Формат : WMA
Версия формата : Version 2
Идентификатор кодека : 161
Идентификатор кодека/Информация : Windows Media Audio
Продолжительность : 3 ч. 44 м.
Вид битрейта : Постоянный
Битрейт : 48,0 Кбит/сек
Каналы : 1 канал
Частота : 44,1 КГц
Битовая глубина : 16 бит
Размер потока : 77,0 Мбайт (32%)
Скриншоты:
Скачать .torrent

Для того, чтобы скачать торрент-файл

Специалист - Межсетевое взаимодействие в сетях на базе TCP/IP (2013)

с нашего сайта, Вам необходимо Войти на сайт под своим логином! Если у Вас ещё нет логина, тогда Вам нужно сначала Зарегистрироваться!

Как скачивать? · Что такое торрент? · Рейтинг и ограничения

Показать сообщения:    
Ответить на тему

Специалист - Межсетевое взаимодействие в сетях на базе TCP/IP (2013) скачать торрент (torrent), видеоуроки, тренинги, обучающее видео и видеокурсы

Текущее время: Сегодня 00:16

Часовой пояс: GMT + 4



Вы не можете начинать темы
Вы не можете отвечать на сообщения
Вы не можете редактировать свои сообщения
Вы не можете удалять свои сообщения
Вы не можете голосовать в опросах
Вы не можете прикреплять файлы к сообщениям
Вы не можете скачивать файлы