Последнее из V.I.P.-раздела

22-Сен
22-Сен
22-Сен
22-Сен
22-Сен
22-Сен
22-Сен
22-Сен
22-Сен
22-Сен
22-Сен
22-Сен
22-Сен
22-Сен
22-Сен
22-Сен
22-Сен
22-Сен
21-Сен
21-Сен

Новости о коронавирусе

New York Institute of Photography - Фундаментальный курс профессиональной фотографии (2014)

Ответить на тему
 
Автор Сообщение

Yulya ®

-New York Institute of Photography - Фундаментальный курс профессиональной фотографии (2014)- Автор (режиссер): New York Institute of Photography
Жанр: Обучающее видео
Продолжительность: много часов
Качество видео: PCRec
Видеокодек: H.264
Битрейт видео: ~~от 300 до 2000kbps
Размер кадра: 704*480, 1200*670, 708*480
Аудиокодек: AAC
Битрейт аудио: ~128kbps
Полностю все на русском!!!
Описание:
Более 30 детальных Уроков-учебников с красочными иллюстрациями. Все необходимые базовые знания по фотографии всегда будут у вас под рукой в виде престижных и удобных буклетов.
Комплект аудио-CD "Listen and Learn" (Слушай и учись). Подробное, страница за страницей, голосовое сопровождение и объяснение материала, изложенного в Уроках-учебниках. На каждом CD вы услышите комментарии лучших профессиональных фотографов NYIP. Они помогут лучше усвоить и закрепить представленный в Уроке материал.
Шесть Видеоуроков на DVD позволят вам увидеть, как работают профессионалы. Это ноу-хау NYIP, которого нет ни в одной из существующих программ, обучающих фотографии.
Шесть ваших фотопроектов, которые будут оценивать профессиональные фотографы. Они также подскажут, как вы сможете улучшить свои снимки. На каждый выполненный фотопроект вы получите цифровую аудиозапись от своего личного инструктора с подробным разбором вашей работы и рекомендациями по ее улучшению.
Общение с персональным инструктором, который ответит на все ваши вопросы. Индивидуальный подход к каждому слушателю и возможность учиться у самых успешных профессионалов в мире фотографии.
Пакет бизнес-уроков, в которых подробно раскрывается процесс организации собственного фотобизнеса. Информация представляет интеллектуальную собственность NYIP и открывает каждому нашему студенту дорогу в мир большого бизнеса.

MediaInfo:

General
Complete name : H:\tutorials\Фундаментальный курс профессиональной фотографии NYIP (2014)\0. Вебинары\03. Жанровая, уличная фотография\2013.06.20_Sergej_Pilipenko.mp4
Format : MPEG-4
Format profile : Base Media
Codec ID : isom
File size : 404 MiB
Duration : 2h 2mn
Overall bit rate mode : Variable
Overall bit rate : 461 Kbps
Encoded date : UTC 2014-01-23 06:18:56
Tagged date : UTC 2014-01-23 06:18:56
Video
ID : 1
Format : AVC
Format/Info : Advanced Video Codec
Format profile : [url=mailto:Baseline@L1.3]Baseline@L1.3[/url]
Format settings, CABAC : No
Format settings, ReFrames : 2 frames
Codec ID : avc1
Codec ID/Info : Advanced Video Coding
Duration : 2h 2mn
Bit rate : 333 Kbps
Maximum bit rate : 4 797 Kbps
Width : 864 pixels
Original width : 856 pixels
Height : 480 pixels
Display aspect ratio : 16:9
Original display aspect ratio : 16:9
Frame rate mode : Constant
Frame rate : 25.000 fps
Color space : YUV
Chroma subsampling : 4:2:0
Bit depth : 8 bits
Scan type : Progressive
Bits/(Pixel*Frame) : 0.032
Stream size : 292 MiB (72%)
Encoded date : UTC 2014-01-20 13:59:40
Tagged date : UTC 2014-01-23 06:19:06
Audio
ID : 2
Format : AAC
Format/Info : Advanced Audio Codec
Format profile : LC
Codec ID : 40
Duration : 2h 2mn
Bit rate mode : Variable
Bit rate : 126 Kbps
Maximum bit rate : 232 Kbps
Channel count : 2 channels
Channel positions : Front: L R
Sampling rate : 44.1 KHz
Compression mode : Lossy
Stream size : 110 MiB (27%)
Encoded date : UTC 2014-01-23 06:19:02
Tagged date : UTC 2014-01-23 06:19:06
Скриншоты:
Скачать .torrent

Для того, чтобы скачать торрент-файл

New York Institute of Photography - Фундаментальный курс профессиональной фотографии (2014)

с нашего сайта, Вам необходимо Войти на сайт под своим логином! Если у Вас ещё нет логина, тогда Вам нужно сначала Зарегистрироваться!

Как скачивать? · Что такое торрент? · Рейтинг и ограничения

Показать сообщения:    
Ответить на тему

New York Institute of Photography - Фундаментальный курс профессиональной фотографии (2014) скачать торрент (torrent), видеоуроки, тренинги, обучающее видео и видеокурсы

Текущее время: Сегодня 05:47

Часовой пояс: GMT + 4



Вы не можете начинать темы
Вы не можете отвечать на сообщения
Вы не можете редактировать свои сообщения
Вы не можете удалять свои сообщения
Вы не можете голосовать в опросах
Вы не можете прикреплять файлы к сообщениям
Вы не можете скачивать файлы