Последнее из V.I.P.-раздела

05-Авг
05-Авг
05-Авг
05-Авг
05-Авг
05-Авг
05-Авг
05-Авг
05-Авг
05-Авг
05-Авг
05-Авг
05-Авг
05-Авг
05-Авг
05-Авг
05-Авг
05-Авг
05-Авг
05-Авг

Новости о коронавирусе

Специалист - XML И XSLT. Современные технологии обработки данных для ВЕБ (2013)

Ответить на тему
 
Автор Сообщение

Yulya ®

-Специалист - XML И XSLT. Современные технологии обработки данных для ВЕБ (2013)- Автор (режиссер): Специалист
Преподаватель: Игорь Олегович Борисов
Жанр: Обучающие видео-уроки
Продолжительность: 19:43:12
Качество видео: PCRec
Видеокодек: WMV, G2M4
Битрейт видео: ~60,1 - 191 kb/s
Размер кадра: 1024x768 - 1300x812
Аудиокодек: WMA
Битрейт аудио: 48 kb/s, 1 Ch
Доп. материалы: Есть
Описание:
XML — это невероятно мощные технологии представления любых данных. Сегодня XML очень распространен в самых разных областях: с помощью XML описывают и представляют документы (офисные документы, книги, счета, платежки и др.), XML часто используется для обмена данными в программировании, для передачи информации в Вебе. Предлагаемый курс рассматривает основные технологии XML, такие как описание данных, грамматика XML-разметки, XML схемы, XSL и XSLT (преобразования XML документов), а также возможности работы с XML, доступные в Microsoft Office 2003/2007
Курс рассчитан на подготовленных слушателей, имеющих опыт в построении сайтов и использовании веб-технологий, веб-мастеров, программистов, разработчиков веб-приложений.
Цель курса: сформировать представление о современных XML технологиях, научить применять эти технологии на практике, продемонстрировать современные подходы к обработке XML данных.

По окончании курса Вы будете уметь:

самостоятельно формировать XML документы;
задавать пространство имен XML;
определять структуру документа с помощью DTD;
определять структуру документа с помощью XML схем;
назначать и использовать XSLT;
эффективно преобразовать данные с помощью XSLT;
грамотно интегрировать XML данные в Microsoft Office 2003/2007;

Программа курса:

Модуль 1. Введение в XML
Введение в языки разметки
Представление данных
Структура XML документа
XML – представление любых данных
Синтаксис, грамматика и семантика элементов
Пространства имен
Привязка пространств имен
Применение XML
Лабораторные работы:
Создание XML документа
Использование пространств имен
Модуль 2. Описание структуры документа - DTD
Представление документа в виде дерева объектов
Способы программного анализа документа
DTD – описание типов документа
Построение DTD
Применение DTD
Проверка структуры с помощью DTD
Лабораторная работа:
Создание DTD описания
Модуль 3. Описание структуры документа – XML схемы
Недостатки и проблемы DTD
XML схемы – как унифицированный способ описания структуры
Основные элементы XML схемы
Описания типов, элементов и атрибутов
Описание сложных типов данных
Средства создания и работы со схемами
Проверка документов по XML схеме
Лабораторные работы:
Создание XML схемы простого документа
Модификация XML схемы своего документа
Модуль 4. Введение в XSLT, XPath
XSLT как средство преобразований XML
Создание XSL документа
Программные средства преобразований XSLT
Шаблоны и шаблонные правила
Язык XPath
Оси выборки
Предикаты
Типы данных и функции XPath
Лабораторные работы:
Создание простого XSL документа
Создание XSL документа
Модуль 5. Основные элементы XSLT
Использование шаблонов
Создание узлов-элементов
Создание узлов-атрибутов
Создание текстовых узлов
Создание комментариев и инструкций обработки
Копирование узлов
Управляющие конструкции
Сортировка значений
Лабораторные работы:
Использование операторов XSLT создания узлов
XSLT преобразование с управляющими конструкциями
Модуль 6. Дополнительные возможности XSLT
Псевдонимы и пространства имен
Ключи и выборка узлов по ключу
Управление выводом документа
Формирование различных выходных файлов
Использование нескольких входных документов
Дополнительные функции XSLT
Лабораторные работы:
Выборка узлов по ключу
XSLT преобразование в различные форматы
Модуль 7. Практическая работа с XSLT
Переменные и параметры
Выборка уникальных значений
Группировка Мюнха
Выборка узлов с множественной группировкой
Лабораторная работа:
Выборка узлов с множественной группировкой
Модуль 8. Интеграция XML данных
Использование XML
Манипуляция XML данными в Microsoft Office 2010
Интеграция данных с Microsoft Office Excel 2010
Интеграция с Microsoft Office Access 2010
Интеграция с Microsoft Office Word 2010
Использование Microsoft Office InfoPath 2010
Лабораторная работа: Создание простого приложения Microsoft Office InfoPath 2010

О преподавателе:

Борисов Игорь Олегович.
Талантливый преподаватель-практик с уникальным опытом практической работы. Старший преподаватель направления «Интернет и Веб-технологии» — специалист, работающий в этой области более 15 лет. Имеет 6 престижнейших международных сертификаций, в том числе Zend Certified Engineer. Ярко и красиво преподносит учебный материал, с наглядными примерами и практическими работами. Общее мнение слушателей — «Побольше таких преподавателей и курсов!».
Автор и соавтор многих курсов Центра «Специалист», в том числе популярнейшего многоуровневого цикла курсов по РНР, курсов по JavaScript, «Web-мастеринг. Серверное web-программирование», «Использование JQuery. Уровень 1» и др. Подготовил более 1500 специалистов и профессиональных пользователей в области интернет и веб-технологий.
Много лет работал в Дании, занимаясь разработкой LMS (Learning Management System) и корпоративных интернет-проектов. В числе клиентов такие имена, как «Canon EMEA», «Navision», «Kuwait Petroleum», «Eurocommerce» (The European trade and union organizations), «WCCE» (Cisco Corporation, Lego and TDC) и «DR» (Danish Broadcast Corporation).
Работал в компаниях «IBS» и «InfoPay», где занимался разработкой корпоративных сайтов и интерактивных SMS-услуг. Оказывает консультационные и консалтинговые услуги в области сложных интернет-проектов и решений.
Статусы:
ZEND CERTIFIED ENGINEER (ZCE)
CIW: CERTIFIED INTERNET WEBMASTER PROFESSIONAL
MCP - MICROSOFT CERTIFIED PROFESSIONAL
MCT - MICROSOFT CERTIFIED TRAINER
MCPD: WEB DEVELOPER В VISUAL STUDIO 2005
MCTS: .NET FRAMEWORK 2.0 WEB APPLICATIONS

Дополнительная информация:

Кодек G2M4 для воспроизведения данного видео прилагается в отдельной папке.

MediaInfo:

Код:
Общее
Полное имя                               : C:\[Специалист] XML И XSLT. Современные технологии обработки данных для ВЕБ - 2013\01.wmv
Формат                                   : Windows Media
Размер файла                             : 127 Мбайт
Продолжительность                        : 2 ч. 25 м.
Режим общего битрейта                    : Переменный
Общий поток                              : 121 Кбит/сек
Максимальный общий битрейт               : 1501 Кбит/сек
Название фильма                          : 01
Дата кодирования                         : UTC 2013-06-07 19:47:02.718
Видео
Идентификатор                            : 2
Формат                                   : VC-1
Профиль формата                          : MP@HL
Идентификатор кодека                     : WMV3
Идентификатор кодека/Информация          : Windows Media Video 9
Идентификатор кодека/Подсказка           : WMV3
Описание кодека                          : Windows Media Video 9
Продолжительность                        : 2 ч. 25 м.
Вид битрейта                             : Переменный
Битрейт                                  : 60,1 Кбит/сек
Ширина                                   : 1048 пикселей
Высота                                   : 784 пикселя
Соотношение сторон                       : 4:3
Частота кадров                           : 15,000 кадров/сек
Цветовое пространство                    : YUV
Субдискретизация насыщенности            : 4:2:0
Битовая глубина                          : 8 бит
Тип развёртки                            : Прогрессивная
Метод сжатия                             : С потерями
Бит/(Пиксели*Кадры)                      : 0.005
Размер потока                            : 62,6 Мбайт (49%)
Язык                                     : English (US)
Аудио
Идентификатор                            : 1
Формат                                   : WMA
Версия формата                           : Version 2
Идентификатор кодека                     : 161
Идентификатор кодека/Информация          : Windows Media Audio
Описание кодека                          : Windows Media Audio 9.2 -  48 kbps, 44 kHz, mono (A/V) 1-pass CBR
Продолжительность                        : 2 ч. 25 м.
Вид битрейта                             : Постоянный
Битрейт                                  : 48,0 Кбит/сек
Каналы                                   : 1 канал
Частота                                  : 44,1 КГц
Битовая глубина                          : 16 бит
Размер потока                            : 50,1 Мбайт (40%)
Язык                                     : English (US)
Код:
Общее
Полное имя                               : C:\[Специалист] XML И XSLT. Современные технологии обработки данных для ВЕБ - 2013\06.wmv
Формат                                   : Windows Media
Размер файла                             : 168 Мбайт
Продолжительность                        : 2 ч. 17 м.
Режим общего битрейта                    : Переменный
Общий поток                              : 171 Кбит/сек
Максимальный общий битрейт               : 904 Кбит/сек
Название фильма                          : 06
Дата кодирования                         : UTC 2013-06-17 18:47:08.887
Видео
Идентификатор                            : 2
Формат                                   : VC-1
Профиль формата                          : MP@HL
Идентификатор кодека                     : WMV3
Идентификатор кодека/Информация          : Windows Media Video 9
Идентификатор кодека/Подсказка           : WMV3
Описание кодека                          : Windows Media Video 9
Продолжительность                        : 2 ч. 17 м.
Вид битрейта                             : Переменный
Битрейт                                  : 110 Кбит/сек
Ширина                                   : 1300 пикселей
Высота                                   : 812 пикселей
Соотношение сторон                       : 16:10
Частота кадров                           : 15,000 кадров/сек
Цветовое пространство                    : YUV
Субдискретизация насыщенности            : 4:2:0
Битовая глубина                          : 8 бит
Тип развёртки                            : Прогрессивная
Метод сжатия                             : С потерями
Бит/(Пиксели*Кадры)                      : 0.007
Размер потока                            : 108 Мбайт (64%)
Язык                                     : English (US)
Аудио
Идентификатор                            : 1
Формат                                   : WMA
Версия формата                           : Version 2
Идентификатор кодека                     : 161
Идентификатор кодека/Информация          : Windows Media Audio
Описание кодека                          : Windows Media Audio 9.2 -  48 kbps, 44 kHz, mono (A/V) 1-pass CBR
Продолжительность                        : 2 ч. 17 м.
Вид битрейта                             : Постоянный
Битрейт                                  : 48,0 Кбит/сек
Каналы                                   : 1 канал
Частота                                  : 44,1 КГц
Битовая глубина                          : 16 бит
Размер потока                            : 47,3 Мбайт (28%)
Язык                                     : English (US)
Скриншоты:
Скачать .torrent

Для того, чтобы скачать торрент-файл

Специалист - XML И XSLT. Современные технологии обработки данных для ВЕБ (2013)

с нашего сайта, Вам необходимо Войти на сайт под своим логином! Если у Вас ещё нет логина, тогда Вам нужно сначала Зарегистрироваться!

Как скачивать? · Что такое торрент? · Рейтинг и ограничения

Показать сообщения:    
Ответить на тему

Специалист - XML И XSLT. Современные технологии обработки данных для ВЕБ (2013) скачать торрент (torrent), видеоуроки, тренинги, обучающее видео и видеокурсы

Текущее время: Сегодня 11:21

Часовой пояс: GMT + 4



Вы не можете начинать темы
Вы не можете отвечать на сообщения
Вы не можете редактировать свои сообщения
Вы не можете удалять свои сообщения
Вы не можете голосовать в опросах
Вы не можете прикреплять файлы к сообщениям
Вы не можете скачивать файлы