Александр Заморин - От заката до рассвета (2014)

Ответить на тему
 
Автор Сообщение

Yulya ®

-Александр Заморин - От заката до рассвета (2014)- Автор (режиссер): Александр Заморин
Жанр: Обучающее видео
Продолжительность: ~5часов
Качество видео: PCRec
Видеокодек: AVC (H264)
Битрейт видео: ~422 Kbps
Размер кадра: 1200x900, 800x450, 1280x720, 800x600
Аудиокодек: AAC
Битрейт аудио: 93kbps
Описание:
На протяжении целого МЕСЯЦА я буду рассказывать Вам самые новые фишки и технологии на тему фотографии в ТЕМНОЕ ВРЕМЯ СУТОК
1. Погружение в ночную фотографию
2. Фотографируем закаты и рассветы
3. Фотографируем ночной город
4. Фотографируем таинственную природу
+ Специальный курс по Photoshop и Lightroom обработке ночных фотографий:
- Легкий способ обработки вечерних и ночных фотографий;
- Более эффектная и сложная ретушь;
- Корректировка и спасение "неудавшихся снимков";
- Устранение грязи, шумов, повышение качества ночных работ;
- Склеивание панорам, наложение фотографий;
- Создание призрачных изображений;
- Наложение фильтров, тонирование, эксперименты.

МедиаИнфо:

General
Complete name : H:\tutorials\Александр Заморин\Александр Заморин - От заката до рассвета (2014)\1. Погружение в ночную фотографию\Погружение в ночную фотографию.mp4
Format : MPEG-4
Format profile : Base Media / Version 2
Codec ID : mp42
File size : 156 MiB
Duration : 51mn 51s
Overall bit rate : 422 Kbps
Encoded date : UTC 2014-08-21 14:41:45
Tagged date : UTC 2014-08-21 14:41:45
Video
ID : 1
Format : AVC
Format/Info : Advanced Video Codec
Format profile : [url=mailto:High@L4.0]High@L4.0[/url]
Format settings, CABAC : Yes
Format settings, ReFrames : 4 frames
Codec ID : avc1
Codec ID/Info : Advanced Video Coding
Duration : 51mn 51s
Source duration : 51mn 51s
Bit rate : 326 Kbps
Width : 1 200 pixels
Height : 900 pixels
Display aspect ratio : 4:3
Frame rate mode : Constant
Frame rate : 15.000 fps
Color space : YUV
Chroma subsampling : 4:2:0
Bit depth : 8 bits
Scan type : Progressive
Bits/(Pixel*Frame) : 0.020
Stream size : 121 MiB (77%)
Source stream size : 121 MiB (77%)
Language : English
Encoded date : UTC 2014-08-21 14:41:45
Tagged date : UTC 2014-08-21 14:41:45
Color primaries : BT.709
Transfer characteristics : BT.709
Matrix coefficients : BT.709
mdhd_Duration : 3110617
Audio
ID : 2
Format : AAC
Format/Info : Advanced Audio Codec
Format profile : LC
Codec ID : 40
Duration : 51mn 51s
Source duration : 51mn 51s
Bit rate mode : Constant
Bit rate : 93.6 Kbps
Channel count : 2 channels
Channel positions : Front: L R
Sampling rate : 44.1 KHz
Compression mode : Lossy
Stream size : 34.7 MiB (22%)
Source stream size : 34.7 MiB (22%)
Language : English
Encoded date : UTC 2014-08-21 14:41:45
Tagged date : UTC 2014-08-21 14:41:45
mdhd_Duration : 3108273
Скриншоты:
Скачать .torrent

Для того, чтобы скачать торрент-файл

Александр Заморин - От заката до рассвета (2014)

с нашего сайта, Вам необходимо Войти на сайт под своим логином! Если у Вас ещё нет логина, тогда Вам нужно сначала Зарегистрироваться!

Как скачивать? · Что такое торрент? · Рейтинг и ограничения

Показать сообщения:    
Ответить на тему

Александр Заморин - От заката до рассвета (2014) скачать торрент (torrent), видеоуроки, тренинги, обучающее видео и видеокурсы

Текущее время: Сегодня 03:37

Часовой пояс: GMT + 4



Вы не можете начинать темы
Вы не можете отвечать на сообщения
Вы не можете редактировать свои сообщения
Вы не можете удалять свои сообщения
Вы не можете голосовать в опросах
Вы не можете прикреплять файлы к сообщениям
Вы не можете скачивать файлы