Даниил Конторович - Съемка атмосферного портрета (2014)

Ответить на тему
 
Автор Сообщение

Yulya ®

-Даниил Конторович - Съемка атмосферного портрета (2014)- Автор (режиссер): Даниил Конторович
Жанр: Обучающее видео
Продолжительность: 02:04:38
Качество видео: CamRip
Видеокодек: Xvid
Битрейт видео: ~4 083 Kbps
Размер кадра: 1920x1080
Аудиокодек: MP3
Битрейт аудио: 320kbps
Описание:
Даниил Конторович, известный фотограф – портретист, записал свой авторский видеокурс для того, чтобы поделиться с Вами знаниями, получаемые им годами.
Нескончаемое количество практики и теории, отобранный и разжеванный материал!
Видеокурс вместил в себя полноценный двухдневный Мастер класс. Задача курса – помочь улучшить технику фотографирования, расширить границы представления о съемке.
Чему вы научитесь, если купите этот видеокурс:
1.Какой типаж моделей лучше всего подходит для съемок, где найти таких моделей и как настроиться на работу.
2. Как не заморачиваться с постановкой модели в кадре и видеть в обычной обстановке необходимую.
3. Как без спешки делать качественные кадры и подходящую обработку с прорисовкой важных деталей.
4. Как удачно поставить и снять модель, чтобы кадр воспринимался легко, но не был таковым.
5. Как, исходя из положения модели и места съемки, построить кадр, достойный всеобщего внимания.
6. Снимать как Конторович! А может даже лучше и тогда самому Конторовичу придется брать у Вас уроки!

Дополнительная информация:

General
Complete name :.......Даниил Конторович - Съемка атмосферного портрета (2014)\Часть 1.avi
Format : AVI
Format/Info : Audio Video Interleave
Format profile : OpenDML
File size : 1.40 GiB
Duration : 49mn 3s
Overall bit rate : 4 083 Kbps
TCOD : 0
TCDO : 29433153750
Video
ID : 0
Format : MPEG-4 Visual
Format profile : Advanced Simple@L5
Format settings, BVOP : Yes
Format settings, QPel : No
Format settings, GMC : No warppoints
Format settings, Matrix : Default (H.263)
Codec ID : XVID
Codec ID/Hint : XviD
Duration : 49mn 3s
Bit rate : 3 687 Kbps
Width : 1 920 pixels
Height : 1 080 pixels
Display aspect ratio : 16:9
Frame rate : 23.976 fps
Color space : YUV
Chroma subsampling : 4:2:0
Bit depth : 8 bits
Scan type : Progressive
Compression mode : Lossy
Bits/(Pixel*Frame) : 0.074
Stream size : 1.26 GiB (90%)
Writing library : XviD 64
Audio
ID : 1
Format : MPEG Audio
Format version : Version 1
Format profile : Layer 3
Mode : Joint stereo
Codec ID : 55
Codec ID/Hint : MP3
Duration : 49mn 3s
Bit rate mode : Constant
Bit rate : 320 Kbps
Channel count : 2 channels
Sampling rate : 48.0 KHz
Compression mode : Lossy
Stream size : 112 MiB (8%)
Alignment : Aligned on interleaves
Interleave, duration : 250 ms (5.99 video frames)
Interleave, preload duration : 264 ms
Скриншоты:
Скачать .torrent

Для того, чтобы скачать торрент-файл

Даниил Конторович - Съемка атмосферного портрета (2014)

с нашего сайта, Вам необходимо Войти на сайт под своим логином! Если у Вас ещё нет логина, тогда Вам нужно сначала Зарегистрироваться!

Как скачивать? · Что такое торрент? · Рейтинг и ограничения

Показать сообщения:    
Ответить на тему

Даниил Конторович - Съемка атмосферного портрета (2014) скачать торрент (torrent), видеоуроки, тренинги, обучающее видео и видеокурсы

Текущее время: Сегодня 04:03

Часовой пояс: GMT + 4



Вы не можете начинать темы
Вы не можете отвечать на сообщения
Вы не можете редактировать свои сообщения
Вы не можете удалять свои сообщения
Вы не можете голосовать в опросах
Вы не можете прикреплять файлы к сообщениям
Вы не можете скачивать файлы