Специалист - Управление интернет-проектами: внедрение, поддержка, развитие интернет-проектов (2014)

Ответить на тему
 
Автор Сообщение

Yulya ®

-Специалист - Управление интернет-проектами: внедрение, поддержка, развитие интернет-проектов (2014)- Автор (режиссер): Специалист
Преподаватель: Яков Михайлович Васин
Жанр: Обучающие видео-уроки
Продолжительность: 11:15:20
Качество видео: PCRec
Видеокодек: G2M4
Битрейт видео: ~63,7 - 75,1 kb/s
Размер кадра: 1360x768
Аудиокодек: WMA
Битрейт аудио: 1411 kb/s, 1 Ch
Доп. материалы: Есть
Описание:
На этом курсе Вы научитесь планировать процессы разработки, внедрения и поддержки интернет-проектов, а также эффективно управлять этими процессами.
В рамках курса будут рассматриваться методики внедрения ПО на базе RUP (Rational Unified Process), использоваться ПО MS Project, Visio, Mindmap.
Курс предназначен для сотрудников компаний, отвечающих за поддержку, разработку, обслуживание интернет-проектов. В подготовке таких специалистов заинтересованы веб-студии, интеграторы, занимающиеся внедрением интернет-проектов, а также любые другие организации, в штате которых есть должности руководителя интернет-проектов. Если Вы заинтересованы в назначении на должность управляющего отделом или специалиста по интернет-проектам, а также желаете получить удостоверение о повышении квалификации – это Ваш курс!

По окончании курса Вы будете уметь:

Создавать отделы интернет-проектов согласно стоящим перед Вами задачам
Планировать и выполнять работы по предпроектному аудиту интернет-проектов
Разрабатывать документацию по интернет-проектам разных уровней
Подбирать специалистов, требующихся для реализации Вашего проекта
Управлять процессами работ над интернет-проектами
Грамотно передавать готовые интернет-ресурсы в коммерческую эксплуатацию

Программа курса:

Модуль 1. Введение в профессию
• Понятие о профессии руководителя интернет-проекта. Основные требования работодателей.
• Виды интернет-проектов и основные бизнес-модели в Рунете.
• Понятие об управлении проектом. Методологии. Процессы.
• Обзор процессов управления проектами.
• Каскадные, итеративные, спиральные модели управления.
• Обзор Agile методологий (SCRUM, XP, RUP, Kanban).
• Особенности процессных подходов.
• Выбор методологии.
• Софт для управления проектами.
• Артефакты процесса управления проектом.
Модуль 2. Создание интернет-проекта от идеи к реализации
• Виды проектов в интернет-отделах компаний.
• Разработка концепции.
• Написание брифа.
• Работа с командой (состав, распределение ответственности и пр.).
• Как подбирать исполнителей.
Модуль 3. Софт для управления интернет-проектами
• ПО для коллективной работы: IDE, контроль версий, трекеры, WIKI.
• Все, что нужно знать о доменных именах, хостинге и работе сервера (понятие, виды, поставщики).
• Выбор CMS. Понятие о CMS, виды, разбор наиболее распространенных CMS Рунета. Подбор CMS и CMF под проект.
• Основные составляющие современного сайта. Последние тенденции в веб-дизайне и технологической составляющей сайта.
• Как правильно создавать техническое задание (ТЗ) на разработку сайта.
• Прототипирование.
• Программное Обеспечение для Управление проектами(Microsoft Project и др.).
• Примеры проектной документации.
• Запуск сайта и его тестирование.
Модуль 4. Аудит и сопровождение интернет-проекта
• Особенности юридического сопровождения интернет-проектов.
• Процедуры завершения проекта.
• Передача проекта в коммерческую эксплуатацию.
• Документальное оформление проекта.

О преподавателе:

Васин Яков Михайлович.
Преподаватель-практик, настоящий мастер интернет-маркетинга с огромным опытом работы. Его занятия наполнены яркими примерами из собственной практики. Целью занятий ставит не только полное усвоение слушателями программы, но и приобретение устойчивых навыков практической работы. Охотно делится опытом, секретами мастерства, дает слушателям профессиональные консультации по изучаемым темам.
Сертифицированный специалист Яндекс.Директ и Google Analytics. Работал в крупных телекоммуникационных компаниях и интернет-магазинах. Отличное знание и понимание функционирования онлайн-бизнеса, включая веб-аналитику, электронную коммерцию, онлайновый маркетинг, методов определение круга потенциальных потребителей, составления портрета целевой аудитории, анализа конкурентов, навыки работы с контекстной, баннерной рекламой, понимание принципов веб-дизайна. Опыт организации и проведения рекламных компаний в Интернет.
Разработчик портала МТС-Поиск. Имеет опыт управления проектами и проектными группами. Руководил разработкой проектов на CMS Битрикс (Bitrix), создавал сайты на Drupal, WordPress, Joomla, SMForum, phpBB. Имеет опыт установки, настройки и обслуживания веб-окружений на базе Linux (CentOS, Ubuntu, Fedora).
Статусы:
СЕРТИФИЦИРОВАННЫЙ СПЕЦИАЛИСТ GOOGLE ADWORDS ADVANCED
СЕРТИФИЦИРОВАННЫЙ ИНСТРУКТОР GOOGLE ADWORDS PROFESSIONAL
СЕРТИФИЦИРОВАННЫЙ СПЕЦИАЛИСТ GOOGLE ANALYTICS
СЕРТИФИЦИРОВАННЫЙ СПЕЦИАЛИСТ СО СТАТУСОМ ЯНДЕКС.ЭКСПЕРТ
СЕРТИФИЦИРОВАННЫЙ ПРЕПОДАВАТЕЛЬ 1С BITRIX
MCT - MICROSOFT CERTIFIED TRAINER
EXIN AGILE SCRUM FOUNDATION

MediaInfo:

Код:
Общее
Полное имя                               : C:\[Специалист] Управление интернет-проектами - 2014\День 1.wmv
Формат                                   : Windows Media
Размер файла                             : 282 Мбайт
Продолжительность                        : 5 ч. 38 м.
Режим общего битрейта                    : Постоянный
Общий поток                              : 116 Кбит/сек
Максимальный общий битрейт               : 1496 Кбит/сек
Название фильма                          : InfoMania.cc
Дата кодирования                         : UTC 2014-03-22 07:32:04.547
Программа кодирования                    :  6.0 Build 1259 / GoToMeeting
BitRateFrom the writer                   : 125961
Audio samples                            : 204867
Video samples                            : 11691
recording time                           : Пн, 23 дек 2013 17:16:45 Московское время (зима)
MediaFoundationVersion                   : 2.112
Видео
Идентификатор                            : 1
Формат                                   : G2M4
Идентификатор кодека                     : G2M4
Продолжительность                        : 5 ч. 38 м.
Вид битрейта                             : Постоянный
Битрейт                                  : 63,7 Кбит/сек
Ширина                                   : 1360 пикселей
Высота                                   : 768 пикселей
Соотношение сторон                       : 16:9
Частота кадров                           : 29,970 кадров/сек
Битовая глубина                          : 8 бит
Бит/(Пиксели*Кадры)                      : 0.002
Размер потока                            : 155 Мбайт (55%)
Язык                                     : Russian
WM/ToolName                              : GoToMeeting
Аудио
Идентификатор                            : 2
Формат                                   : WMA
Версия формата                           : Version 2
Идентификатор кодека                     : 161
Идентификатор кодека/Информация          : Windows Media Audio
Продолжительность                        : 5 ч. 38 м.
Вид битрейта                             : Постоянный
Битрейт                                  : 1411 Кбит/сек
Каналы                                   : 1 канал
Частота                                  : 44,1 КГц
Битовая глубина                          : 16 бит
Размер потока                            : 3,34 Гбайт
Язык                                     : Russian
Код:
Общее
Полное имя                               : C:\[Специалист] Управление интернет-проектами - 2014\День 2.wmv
Формат                                   : Windows Media
Размер файла                             : 307 Мбайт
Продолжительность                        : 5 ч. 36 м.
Режим общего битрейта                    : Постоянный
Общий поток                              : 128 Кбит/сек
Максимальный общий битрейт               : 1507 Кбит/сек
Название фильма                          : InfoMania.cc
Дата кодирования                         : UTC 2014-03-22 08:06:22.124
Программа кодирования                    :  6.0 Build 1259 / GoToMeeting
BitRateFrom the writer                   : 156233
Audio samples                            : 208421
Video samples                            : 19224
recording time                           : Вт, 24 дек 2013 17:30:17 Московское время (зима)
MediaFoundationVersion                   : 2.112
Видео
Идентификатор                            : 1
Формат                                   : G2M4
Идентификатор кодека                     : G2M4
Вид битрейта                             : Постоянный
Битрейт                                  : 75,1 Кбит/сек
Ширина                                   : 1360 пикселей
Высота                                   : 768 пикселей
Соотношение сторон                       : 16:9
Режим частоты кадров                     : Переменный
Номинальная частота кадров               : 29,970 кадров/сек
Битовая глубина                          : 8 бит
Язык                                     : Russian
WM/ToolName                              : GoToMeeting
Аудио
Идентификатор                            : 2
Формат                                   : WMA
Версия формата                           : Version 2
Идентификатор кодека                     : 161
Идентификатор кодека/Информация          : Windows Media Audio
Продолжительность                        : 5 ч. 36 м.
Вид битрейта                             : Постоянный
Битрейт                                  : 1411 Кбит/сек
Каналы                                   : 1 канал
Частота                                  : 44,1 КГц
Битовая глубина                          : 16 бит
Размер потока                            : 3,32 Гбайт
Язык                                     : Russian
Скриншоты:
Скачать .torrent

Для того, чтобы скачать торрент-файл

Специалист - Управление интернет-проектами: внедрение, поддержка, развитие интернет-проектов (2014)

с нашего сайта, Вам необходимо Войти на сайт под своим логином! Если у Вас ещё нет логина, тогда Вам нужно сначала Зарегистрироваться!

Как скачивать? · Что такое торрент? · Рейтинг и ограничения

Показать сообщения:    
Ответить на тему

Специалист - Управление интернет-проектами: внедрение, поддержка, развитие интернет-проектов (2014) скачать торрент (torrent), видеоуроки, тренинги, обучающее видео и видеокурсы

Текущее время: Сегодня 13:41

Часовой пояс: GMT + 4



Вы не можете начинать темы
Вы не можете отвечать на сообщения
Вы не можете редактировать свои сообщения
Вы не можете удалять свои сообщения
Вы не можете голосовать в опросах
Вы не можете прикреплять файлы к сообщениям
Вы не можете скачивать файлы