Специалист - Курс M10263. Разработка решений на базе Windows Communication Foundation (WCF) в Microsoft Visual Studio (2012)

Ответить на тему
 
Автор Сообщение

Yulya ®

-Специалист - Курс M10263. Разработка решений на базе Windows Communication Foundation (WCF) в Microsoft Visual Studio (2012)- Автор (режиссер): Специалист
Преподаватель: А.И. Кораблин
Жанр: Обучающие видео-уроки
Продолжительность: 09:56:07
Качество видео: PCRec
Видеокодек: AVC
Битрейт видео: ~170 - 192 kb/s
Размер кадра: 1280x746
Аудиокодек: AAC
Битрейт аудио: 53,2 - 53,6 kb/s, 2 Ch
Описание:
В курсе рассматривается архитектура распределённых систем на базе WCF сервисов. Наряду с общей архитектурой WCF сервисов рассмотрены и следующие моменты: безопасность, надёжность работы сервиса, производительность и оптимизация сервисов, а так же вопросы тестирования WCF сервисов и создания надёжной инфраструктуры решения с применением транзакций и очередей сообщений.
Среда разработки Visual Studio получила широкое распространение на платформе Microsoft Windows. Версия Visual Studio 2010 охватывает все этапы создания приложений от дизайна и кодирования до тестирования и отладки. На курсе рассматриваются основные приемы и методы эффективного использования технологии WCF в распределённых решениях масштаба предприятия.
Курс предназначен для профессиональных разработчиков, которые планируют использовать платформу Microsoft .Net Framework версии 4.0 в своей практике. Особенно курс будет полезен архитекторам и разработчикам распределённых систем, желающим использовать все возможности платформы .Net.

Цель курса:

Данный курс позволяет получить теоретические и практические навыки создания, настройки и конфигурирования решений с использованием технологии Microsoft Windows Communication Foundation на базе .Net Framework 4.0 и Microsoft Visual Studio 2010.

По окончании курса Вы будете уметь:

Реализовывать решения с архитектурой ориентированной на использование сервисов (SOA) на базе Windows Communication Foundation
Размещать WCF сервис в различных вариантах Windows-программ
Определять и разрабатывать контракты сервиса, контракты данных и контракты сообщений для WCF сервиса
Создавать множественные точки доступа с различными вариантами передачи и форматирования сообщений
Тестировать, разрабатывать стратегию обработки ошибок, вести мониторинг и диагностику WCF сервисов
Создавать надёжные решения с применением транзакций и очередей сообщений
Разрабатывать WCF сервисы с использованием механизмов безопасности на уровне сообщения и на транспортном уровне
Улучшать WCF сервисы за счёт использования и тонкой настройки поведения, инспекторов и форматирования сообщений

Программа курса:

Модуль 1. Обзор архитектуры ориентированной на сервисы (SOA)
Введение в SOA
Преимущества при использовании SOA
Введение в WCF
Лабораторная работа: архитектура ориентированная на сервисы
Модуль 2. Введение в разработку с использованием Microsoft Windows Communication Foundation
Контракты сервисов и их реализация
Размещение WCF сервисов
Поведение WCF сервисов
Использование WCF сервисов
Лабораторная работа: жизненный цикл разработки сервисов
Модуль 3. Размещение Microsoft Windows Communication Foundation Services
Варианты размещения WCF сервисов
Обзор класса ServiceHost
Размещение WCF сервисов в службах Windows
Размещение в IIS, WAS и AppFabric
Конфигурирование хост приложения
Сравнение вариантов размещения WCF сервисов
Лабораторная работа: размещение WCF сервисов
Модуль 4. Определение и реализация контрактов в Microsoft Windows Communication Foundation
Введение в понятие контракт
Обзор типов контрактов
Механизмы сообщений
Разработка WCF контракта
Лабораторная работа: дизайн и реализация контракта
Модуль 5. Конечные точки и поведение
Реализация множественных точек доступа и совместимость
Поиск WCF сервисов
Точки доступа для WCF по умолчанию
Механизмы создания объектов WCF и сценарии использования в многопоточной среде
Надёжность WCF сервисов
Лабораторная работа: конечные точки и поведение в WCF
Модуль 6. Тестирование и поиск неисправностей в Microsoft Windows Communication Foundation
Ошибки и симптомы проблем
Неисправности WCF сервисов
Отладка WCF сервисов и диагностические инструменты
Управление работающими сервисами
Лабораторная работа: тестирование и поиск неисправностей в WCF сервисах
Модуль 7. Безопасность
Введение в безопасность приложений
Модель безопасности WCF сервисов
Безопасность сообщений и транспортная безопасность
Аутентификация и авторизация
Аутентификация с использованием утверждений (claim-based)
Лабораторная работа: реализация безопасности в WCF сервисах
Модуль 8. Знакомство с расширенными возможностями Microsoft Windows Communication Foundation — (необязательная дополнительная глава)
Реализация асинхронных вызовов
Расширение WCF сервисов
Маршрутизация
WCF сервисы и рабочие процессы (workflow)
Лабораторная работа: расширенные возможности

MediaInfo:

Код:
Общее
Полное имя                               : C:\[Специалист] M10263. Разработка решений на базе Windows Communication Foundation (WCF) в Microsoft Visual Studio - 2012\М10263_1.mp4
Формат                                   : MPEG-4
Профиль формата                          : Base Media / Version 2
Идентификатор кодека                     : mp42
Размер файла                             : 347 Мбайт
Продолжительность                        : 3 ч. 35 м.
Общий поток                              : 226 Кбит/сек
Дата кодирования                         : UTC 2014-09-24 04:54:26
Дата пометки                             : UTC 2014-09-24 04:54:26
Видео
Идентификатор                            : 1
Формат                                   : AVC
Формат/Информация                        : Advanced Video Codec
Профиль формата                          : [url=mailto:High@L3.2]High@L3.2[/url]
Параметр CABAC формата                   : Да
Параметр ReFrames формата                : 4 кадра
Идентификатор кодека                     : avc1
Идентификатор кодека/Информация          : Advanced Video Coding
Продолжительность                        : 3 ч. 35 м.
Продолжительность оригинала              : 3 ч. 35 м.
Битрейт                                  : 170 Кбит/сек
Ширина                                   : 1280 пикселей
Высота                                   : 746 пикселей
Соотношение сторон                       : 1,716
Режим частоты кадров                     : Постоянный
Частота кадров                           : 15,000 кадров/сек
Цветовое пространство                    : YUV
Субдискретизация насыщенности            : 4:2:0
Битовая глубина                          : 8 бит
Тип развёртки                            : Прогрессивная
Бит/(Пиксели*Кадры)                      : 0.012
Размер потока                            : 262 Мбайт (75%)
Размер потока оригинала                  : 262 Мбайт (75%)
Язык                                     : English
Дата кодирования                         : UTC 2014-09-24 04:54:26
Дата пометки                             : UTC 2014-09-24 04:54:26
Основные цвета                           : BT.709
Характеристики трансфера                 : BT.709
Коэффициенты матрицы                     : BT.709
mdhd_Duration                            : 12907769
Аудио
Идентификатор                            : 2
Формат                                   : AAC
Формат/Информация                        : Advanced Audio Codec
Профиль формата                          : LC
Идентификатор кодека                     : 40
Продолжительность                        : 3 ч. 35 м.
Продолжительность оригинала              : 3 ч. 35 м.
Вид битрейта                             : Постоянный
Битрейт                                  : 53,2 Кбит/сек
Каналы                                   : 2 канала
Расположение каналов                     : Front: L R
Частота                                  : 44,1 КГц
Метод сжатия                             : С потерями
Размер потока                            : 82,5 Мбайт (24%)
Размер потока оригинала                  : 82,5 Мбайт (24%)
Язык                                     : English
Дата кодирования                         : UTC 2014-09-24 04:54:26
Дата пометки                             : UTC 2014-09-24 04:54:26
mdhd_Duration                            : 12991642
Код:
Общее
Полное имя                               : C:\[Специалист] M10263. Разработка решений на базе Windows Communication Foundation (WCF) в Microsoft Visual Studio - 2012\М10263_4.mp4
Формат                                   : MPEG-4
Профиль формата                          : Base Media / Version 2
Идентификатор кодека                     : mp42
Размер файла                             : 320 Мбайт
Продолжительность                        : 3 ч. 0 м.
Общий поток                              : 247 Кбит/сек
Дата кодирования                         : UTC 2014-09-28 08:41:53
Дата пометки                             : UTC 2014-09-28 08:41:53
Видео
Идентификатор                            : 1
Формат                                   : AVC
Формат/Информация                        : Advanced Video Codec
Профиль формата                          : [url=mailto:High@L3.2]High@L3.2[/url]
Параметр CABAC формата                   : Да
Параметр ReFrames формата                : 4 кадра
Идентификатор кодека                     : avc1
Идентификатор кодека/Информация          : Advanced Video Coding
Продолжительность                        : 3 ч. 0 м.
Продолжительность оригинала              : 3 ч. 0 м.
Битрейт                                  : 192 Кбит/сек
Ширина                                   : 1280 пикселей
Высота                                   : 746 пикселей
Соотношение сторон                       : 1,716
Режим частоты кадров                     : Постоянный
Частота кадров                           : 15,000 кадров/сек
Цветовое пространство                    : YUV
Субдискретизация насыщенности            : 4:2:0
Битовая глубина                          : 8 бит
Тип развёртки                            : Прогрессивная
Бит/(Пиксели*Кадры)                      : 0.013
Размер потока                            : 248 Мбайт (78%)
Размер потока оригинала                  : 248 Мбайт (78%)
Язык                                     : English
Дата кодирования                         : UTC 2014-09-28 08:41:53
Дата пометки                             : UTC 2014-09-28 08:41:53
Основные цвета                           : BT.709
Характеристики трансфера                 : BT.709
Коэффициенты матрицы                     : BT.709
mdhd_Duration                            : 10858936
Аудио
Идентификатор                            : 2
Формат                                   : AAC
Формат/Информация                        : Advanced Audio Codec
Профиль формата                          : LC
Идентификатор кодека                     : 40
Продолжительность                        : 3 ч. 0 м.
Продолжительность оригинала              : 3 ч. 0 м.
Вид битрейта                             : Постоянный
Битрейт                                  : 53,2 Кбит/сек
Каналы                                   : 2 канала
Расположение каналов                     : Front: L R
Частота                                  : 44,1 КГц
Метод сжатия                             : С потерями
Размер потока                            : 69,2 Мбайт (22%)
Размер потока оригинала                  : 69,2 Мбайт (22%)
Язык                                     : English
Дата кодирования                         : UTC 2014-09-28 08:41:53
Дата пометки                             : UTC 2014-09-28 08:41:53
mdhd_Duration                            : 10915501
Скриншоты:
Показать сообщения:    
Ответить на тему

Специалист - Курс M10263. Разработка решений на базе Windows Communication Foundation (WCF) в Microsoft Visual Studio (2012) скачать торрент (torrent), видеоуроки, тренинги, обучающее видео и видеокурсы

Текущее время: Сегодня 02:39

Часовой пояс: GMT + 4



Вы не можете начинать темы
Вы не можете отвечать на сообщения
Вы не можете редактировать свои сообщения
Вы не можете удалять свои сообщения
Вы не можете голосовать в опросах
Вы не можете прикреплять файлы к сообщениям
Вы не можете скачивать файлы