Последнее из V.I.P.-раздела

19-Ноя-19 06:59
19-Ноя-19 06:58
19-Ноя-19 06:54
19-Ноя-19 06:49
19-Ноя-19 06:47
19-Ноя-19 06:46
19-Ноя-19 06:37
19-Ноя-19 06:35
19-Ноя-19 06:30
19-Ноя-19 06:25

Специалист - Курс M10262. Разработка Windows приложений в Microsoft Visual Studio (2011)

Ответить на тему
 
Автор Сообщение

Yulya ®

-Специалист - Курс M10262. Разработка Windows приложений в Microsoft Visual Studio (2011)- Автор (режиссер): Специалист
Преподаватель: А.И. Кораблин
Жанр: Обучающие видео-уроки
Продолжительность: 12:48:37
Качество видео: PCRec
Видеокодек: AVC
Битрейт видео: ~451 - 483 kb/s
Размер кадра: 960x720
Аудиокодек: AAC
Битрейт аудио: 126 kb/s, 2 Ch
Описание:
Среда разработки Visual Studio получила широкое распространение на платформе Microsoft Windows. Одна из последних версий - Visual Studio 2010 охватывает все этапы создания приложений от дизайна и кодирования до тестирования и отладки. На курсе «Разработка Windows приложений в Microsoft Visual Studio® 2010» рассматриваются основные приемы и методы эффективного использования WPF классов в профессиональных разработках.
Курс предназначен для изучения как C#, так и Visual Basic .Net. Для этого курс снабжён лабораторными работами на двух языках, и слушатель может выбрать, какой технологией он будет пользоваться при их выполнении. Преподаватель консультирует и объясняет материал с помощью примеров на C#.
Данный курс предназначен для разработчиков, которые планируют пользоваться платформой Microsoft .Net Framework версии 4.0 в своей практике. Особенно курс будет интересен разработчикам, занимающихся дизайном и созданием систем пользовательского интерфейса.

Цель курса:

Теоретическое и практическое знакомство с синтаксисом языка XAML, структурой разметки и работу с разметкой в среде Visual Studio 2010. Курс закладывает достаточный уровень владения технологий WPF для создания клиентских приложений использующих привязку к данным, мультимедиа средства и анимацию на базе .Net Framework 4.0.

По окончании курса Вы будете уметь:

Выбрать технологию и архитектурные паттерны для клиентских приложений
Понимать новые возможности Visual Studio 2010 и WPF версии 4.0
Создавать дизайн и реализовывать пользовательский интерфейс в Visual Studio 2010 и WPF версии 4.0
Создавать целостный и эффективный пользовательский интерфейс
Понимать принципы модульного тестирования и отладки приложений
Эффективно использовать привязку данных и механизмы проверки данных в приложениях
Реализовывать привязку данных к коллекциям
Понимать принципы создания клиентских программ с малым временем отклика
Создавать локализованные приложения, реализовывать элементы помощи пользователю
Описывать основные графические возможности WFP, включая работу с аудио в видео
Настраивать элементы управления с использованием стилей и шаблонов
Создавать свои элементы управления
Понимать принципы использования механизмов поведения в клиентских приложениях
Реализовывать анимацию, разрабатывать визуализацию данных для клиентских приложений
Управлять состоянием приложения и его настройками на протяжении жизненного цикла работы программы
Развёртывать приложения различными методами, предоставляемыми Visual Studio 2010

Программа курса:

Модуль 1. Дизайн клиентских приложений
Существующие технологии разработки клиентских приложений
Обзор архитектурных паттернов
Лабораторная работа: планирование создания клиентского приложения
Модуль 2. Введение в Visual Studio 2010 и WPF версии 4.0
Что нового в Visual Studio 2010?
Что нового в WPF версии 4.0?
Лабораторная работа: обзор возможностей Visual Studio 2010 и XAML
Модуль 3. Дизайн и разработка пользовательского интерфейса
Определение макета размещения элементов на форме/странице
Работа с элементами управления (Content Controls)
Работа со списками (Items Controls)
Создание разделяемых ресурсов в объекте форма/окно
Лабораторная работа: создание пользовательского интерфейса
Модуль 4. Работа с элементами управления
Создание разделяемых ресурсов в объекте приложение
Создание целостного пользовательского интерфейса с применением стилей
Изменение внешнего вида элементов управления с применением шаблонов
Обработка событий и команд
Лабораторная работа: динамическое управление пользовательским интерфейсом
Модуль 5. Тестирование, модульное тестирование и отладка
Стратегии тестирование WPF приложений
Отладка XAML
Предоставление пользователю отчёта по необработанным исключениям
Обзор возможностей по управлению безопасностью
Лабораторная работа: тестирование и отладка WPF приложения
Модуль 6. Привязка данных и проверка данных
Знакомство с механизмом привязки данных
Использование привязки данных
Реализация механизма извещения об изменении свойств
Преобразование данных
Проверка данных
Формирование способа отображения данных
Лабораторная работа: использование привязки данных
Модуль 7. Привязка данных и коллекции
Использование коллекции как источника данных
Использование представления для коллекций
Разработка пользовательского интерфейса в варианте Master-Detail
Использование шаблона данных
Лабораторная работа: привязка данных и коллекции
Модуль 8. Улучшение времени отклика пользовательского интерфейса
Реализация асинхронных процессов
Реализация малых откликов в пользовательском интерфейсе
Лабораторная работа: улучшение производительности приложения
Модуль 9. Локализация и помощь пользователю
Введение в локализацию и глобализацию
Реализация элементов помощи пользователю
Лабораторная работа: локализация в WPF приложении
Модуль 10. WPF 2-D графика, мультимедиа и печать
Создание 2-D графики
Вывод изображений
Добавление мультимедиа
Создание и печать документов
Лабораторная работа С: реализация 2-D графики
Модуль 11. Настройка элементов управления
Обзор элементов управления
Создание элементов управления
Управление внешним видом элементов на базе состояний (Visual States)
Интеграция WPF и Windows Forms
Лабораторная работа: создание своих элементов управления
Модуль 12. Присоединяемые свойства и поведение в WPF
Реализация присоединяемых свойств
Реализация поведения, создание триггеров и действий
Реализация Drag-and-Drop в пользовательском интерфейсе
Лабораторная работа В: реализация операций Drag-and-Drop
Модуль 13. Анимация в WPF
Использование анимации
Использование триггеров
Реализация визуализации данных
Лабораторная работа: создание анимации
Модуль 14. Настройки и состояние приложения, жизненный цикл приложения
Управление состоянием приложения с использованием настроек приложения
Управление жизненным циклом приложения
Лабораторная работа: создание диалога по настройкам приложения
Модуль 15. Конфигурирование и развёртывание клиентского приложения
Варианты развёртывания
Развёртывание WPF приложения
Развёртывание XBAP
Конфигурирование настроек безопасности
Лабораторная работа: развёртывание приложений

MediaInfo:

Код:
Общее
Полное имя                               : C:\[Специалист] M10262. Разработка Windows приложений в Microsoft Visual Studio - 2011\day_5.mp4
Формат                                   : MPEG-4
Профиль формата                          : Base Media / Version 2
Идентификатор кодека                     : mp42
Размер файла                             : 499 Мбайт
Продолжительность                        : 2 ч. 0 м.
Режим общего битрейта                    : Переменный
Общий поток                              : 579 Кбит/сек
Дата кодирования                         : UTC 2014-11-13 08:40:56
Дата пометки                             : UTC 2014-11-13 08:40:56
Видео
Идентификатор                            : 1
Формат                                   : AVC
Формат/Информация                        : Advanced Video Codec
Профиль формата                          : [url=mailto:High@L3.1]High@L3.1[/url]
Параметр CABAC формата                   : Да
Параметр ReFrames формата                : 3 кадра
Идентификатор кодека                     : avc1
Идентификатор кодека/Информация          : Advanced Video Coding
Продолжительность                        : 2 ч. 0 м.
Битрейт                                  : 451 Кбит/сек
Ширина                                   : 960 пикселей
Высота                                   : 720 пикселей
Соотношение сторон                       : 4:3
Режим частоты кадров                     : Постоянный
Частота кадров                           : 30,000 кадров/сек
Стандарт вещания                         : NTSC
Цветовое пространство                    : YUV
Субдискретизация насыщенности            : 4:2:0
Битовая глубина                          : 8 бит
Тип развёртки                            : Прогрессивная
Бит/(Пиксели*Кадры)                      : 0.022
Размер потока                            : 388 Мбайт (78%)
Язык                                     : English
Дата кодирования                         : UTC 2014-11-13 08:40:57
Дата пометки                             : UTC 2014-11-13 08:40:57
Основные цвета                           : BT.709
Характеристики трансфера                 : BT.709
Коэффициенты матрицы                     : BT.709
Аудио
Идентификатор                            : 2
Формат                                   : AAC
Формат/Информация                        : Advanced Audio Codec
Профиль формата                          : LC
Идентификатор кодека                     : 40
Продолжительность                        : 2 ч. 0 м.
Вид битрейта                             : Переменный
Битрейт                                  : 126 Кбит/сек
Максимальный битрейт                     : 212 Кбит/сек
Каналы                                   : 2 канала
Расположение каналов                     : Front: L R
Частота                                  : 44,1 КГц
Метод сжатия                             : С потерями
Размер потока                            : 108 Мбайт (22%)
Язык                                     : English
Дата кодирования                         : UTC 2014-11-13 08:40:57
Дата пометки                             : UTC 2014-11-13 08:40:57
Код:
Общее
Полное имя                               : C:\[Специалист] M10262. Разработка Windows приложений в Microsoft Visual Studio - 2011\day_3.mp4
Формат                                   : MPEG-4
Профиль формата                          : Base Media / Version 2
Идентификатор кодека                     : mp42
Размер файла                             : 610 Мбайт
Продолжительность                        : 2 ч. 19 м.
Режим общего битрейта                    : Переменный
Общий поток                              : 611 Кбит/сек
Дата кодирования                         : UTC 2014-11-12 22:49:37
Дата пометки                             : UTC 2014-11-12 22:49:37
Видео
Идентификатор                            : 1
Формат                                   : AVC
Формат/Информация                        : Advanced Video Codec
Профиль формата                          : [url=mailto:High@L3.1]High@L3.1[/url]
Параметр CABAC формата                   : Да
Параметр ReFrames формата                : 3 кадра
Идентификатор кодека                     : avc1
Идентификатор кодека/Информация          : Advanced Video Coding
Продолжительность                        : 2 ч. 19 м.
Битрейт                                  : 483 Кбит/сек
Ширина                                   : 960 пикселей
Высота                                   : 720 пикселей
Соотношение сторон                       : 4:3
Режим частоты кадров                     : Постоянный
Частота кадров                           : 30,000 кадров/сек
Стандарт вещания                         : NTSC
Цветовое пространство                    : YUV
Субдискретизация насыщенности            : 4:2:0
Битовая глубина                          : 8 бит
Тип развёртки                            : Прогрессивная
Бит/(Пиксели*Кадры)                      : 0.023
Размер потока                            : 482 Мбайт (79%)
Язык                                     : English
Дата кодирования                         : UTC 2014-11-12 22:49:37
Дата пометки                             : UTC 2014-11-12 22:49:37
Основные цвета                           : BT.709
Характеристики трансфера                 : BT.709
Коэффициенты матрицы                     : BT.709
Аудио
Идентификатор                            : 2
Формат                                   : AAC
Формат/Информация                        : Advanced Audio Codec
Профиль формата                          : LC
Идентификатор кодека                     : 40
Продолжительность                        : 2 ч. 19 м.
Вид битрейта                             : Переменный
Битрейт                                  : 126 Кбит/сек
Максимальный битрейт                     : 176 Кбит/сек
Каналы                                   : 2 канала
Расположение каналов                     : Front: L R
Частота                                  : 44,1 КГц
Метод сжатия                             : С потерями
Размер потока                            : 125 Мбайт (21%)
Язык                                     : English
Дата кодирования                         : UTC 2014-11-12 22:49:37
Дата пометки                             : UTC 2014-11-12 22:49:37
Скриншоты:
Скачать .torrent

Для того, чтобы скачать торрент-файл

Специалист - Курс M10262. Разработка Windows приложений в Microsoft Visual Studio (2011)

с нашего сайта, Вам необходимо Войти на сайт под своим логином! Если у Вас ещё нет логина, тогда Вам нужно сначала Зарегистрироваться!

Как скачивать? · Что такое торрент? · Рейтинг и ограничения

Показать сообщения:    
Ответить на тему

Специалист - Курс M10262. Разработка Windows приложений в Microsoft Visual Studio (2011) скачать торрент (torrent), видеоуроки, тренинги, обучающее видео и видеокурсы

Текущее время: Сегодня 00:49

Часовой пояс: GMT + 4



Вы не можете начинать темы
Вы не можете отвечать на сообщения
Вы не можете редактировать свои сообщения
Вы не можете удалять свои сообщения
Вы не можете голосовать в опросах
Вы не можете прикреплять файлы к сообщениям
Вы не можете скачивать файлы