[HighlightsSchool] Маргарита Карева - Цветокоррекция и тонирование в Photoshop (2014)

Ответить на тему
 
Автор Сообщение

Yulya ®

-[HighlightsSchool] Маргарита Карева - Цветокоррекция и тонирование в Photoshop (2014)- Автор (режиссер): Маргарита Карева
Жанр: Обучающее видео
Продолжительность: 02:43:21
Качество видео: PCRec
Видеокодек: (H264)
Битрейт видео: ~388kbps
Размер кадра: 1280x720
Аудиокодек: AAC
Битрейт аудио: 147kbps
Описание:
Авторский online мастер-класс Маргариты Каревой

ПРОГРАММА МК:

1) Теория работы с цветом
- Цветовой ритм
- Соотношение светлого - темного
- Сочетание цветов по цветовому кругу
- Баланс цвета
2) Постановка технического задания, определение атмосферы кадра.
Построение работы в Photoshop на этапе съемки. Опорные точки для дальнейших действий.
3) Raw - конвертация, первые шаги цветокоррекции.
- Расширяем динамический диапазон.
- Задаем общую температуру снимка.
- Инструмент "clarity"
- Эксперименты с основными цветами на фотографии.
- Разбиение тонов.
4) Цветокоррекция и тонирование изображения. Как подчеркнуть атмосферу? Как создать настроение? Общий алгоритм.
- Цветовые блики на фото, как сделать маску габо на фотографии в студии или в помещении.
- Отделяем модель от фона и добавляем обьем фотографии
- Расставляем акценты на фотографии.
- Ретушь и прорисовка лица и тела с помощью затемнения и осветления.
- Работа с детализацией.
- Работа с кривыми по каналам.
- Инструмент "выборочная коррекция света" - работа с каждым цветом в отдельности, тонирование снимка
- Инструмент "карта градиента" - теплое тонирование на фотографии
- Цветовой баланс (усиливаем контраст картинки за счет увеличения контрастности цветов, работа с цветом в тенях, средних тонах и светах)
- Микширование каналов и использование масок для создания необычного тонирования на фото.
5) Дополнительные эффекты
- Виньетирование
- Добавляем текстуру на фотографии.
- Добавляем эффекты на фотографии (туман, пыль, дождь, снег и тд)
- Работа с шумом.
6) Подготовка фотографии к публикации в интернете

МедиаИнфо:

General
Complete name :....Маргарита Карева - Цветокоррекция и тонирование в Photoshop (2014).mp4
Format : MPEG-4
Format profile : Base Media / Version 2
Codec ID : mp42
File size : 631 MiB
Duration : 2h 43mn
Overall bit rate mode : Variable
Overall bit rate : 540 Kbps
Encoded date : UTC 2014-03-10 14:13:05
Tagged date : UTC 2014-03-10 14:13:05
Video
ID : 1
Format : AVC
Format/Info : Advanced Video Codec
Format profile : [url=mailto:High@L3.1]High@L3.1[/url]
Format settings, CABAC : Yes
Format settings, ReFrames : 4 frames
Codec ID : avc1
Codec ID/Info : Advanced Video Coding
Duration : 2h 43mn
Bit rate : 388 Kbps
Width : 1 280 pixels
Height : 720 pixels
Display aspect ratio : 16:9
Frame rate mode : Constant
Frame rate : 29.970 fps
Color space : YUV
Chroma subsampling : 4:2:0
Bit depth : 8 bits
Scan type : Progressive
Bits/(Pixel*Frame) : 0.014
Stream size : 454 MiB (72%)
Writing library : x264 core 140 r2377 1ca7bb9
Encoding settings : cabac=1 / ref=3 / deblock=1:0:0 / analyse=0x3:0x113 / me=hex / subme=7 / psy=1 / psy_rd=1.00:0.00 / mixed_ref=1 / me_range=16 / chroma_me=1 / trellis=1 / 8x8dct=1 / cqm=0 / deadzone=21,11 / fast_pskip=1 / chroma_qp_offset=-2 / threads=12 / lookahead_threads=2 / sliced_threads=0 / nr=0 / decimate=1 / interlaced=0 / bluray_compat=0 / stitchable=1 / constrained_intra=0 / bframes=3 / b_pyramid=2 / b_adapt=1 / b_bias=0 / direct=1 / weightb=1 / open_gop=0 / weightp=2 / keyint=90 / keyint_min=30 / scenecut=40 / intra_refresh=0 / rc_lookahead=40 / rc=crf / mbtree=1 / crf=20.0 / qcomp=0.60 / qpmin=5 / qpmax=69 / qpstep=4 / vbv_maxrate=3750 / vbv_bufsize=12500 / crf_max=0.0 / nal_hrd=none / filler=0 / ip_ratio=1.40 / aq=1:1.00
Encoded date : UTC 2014-03-10 14:13:05
Tagged date : UTC 2014-03-10 14:13:05
Audio
ID : 2
Format : AAC
Format/Info : Advanced Audio Codec
Format profile : LC
Codec ID : 40
Duration : 2h 43mn
Bit rate mode : Variable
Bit rate : 147 Kbps
Channel count : 2 channels
Channel positions : Front: L R
Sampling rate : 48.0 KHz
Compression mode : Lossy
Stream size : 172 MiB (27%)
Encoded date : UTC 2014-03-10 14:13:05
Tagged date : UTC 2014-03-10 14:13:05
Скриншоты:
Скачать .torrent

Для того, чтобы скачать торрент-файл

[HighlightsSchool] Маргарита Карева - Цветокоррекция и тонирование в Photoshop (2014)

с нашего сайта, Вам необходимо Войти на сайт под своим логином! Если у Вас ещё нет логина, тогда Вам нужно сначала Зарегистрироваться!

Как скачивать? · Что такое торрент? · Рейтинг и ограничения

Показать сообщения:    
Ответить на тему

[HighlightsSchool] Маргарита Карева - Цветокоррекция и тонирование в Photoshop (2014) скачать торрент (torrent), видеоуроки, тренинги, обучающее видео и видеокурсы

Текущее время: Сегодня 19:31

Часовой пояс: GMT + 4



Вы не можете начинать темы
Вы не можете отвечать на сообщения
Вы не можете редактировать свои сообщения
Вы не можете удалять свои сообщения
Вы не можете голосовать в опросах
Вы не можете прикреплять файлы к сообщениям
Вы не можете скачивать файлы