Данил Васенёв - Сказочные фантазии 5 уроков (2014)

Ответить на тему
 
Автор Сообщение

Yulya ®

-Данил Васенёв - Сказочные фантазии 5 уроков (2014)- Автор (режиссер): Данил Васенёв
Жанр: Обучающее видео
Продолжительность: 01:06:21+00:38:14+00:39:52+01:04:28+01:39:57
Качество видео: WEB-DL
Видеокодек: AVC H.264
Битрейт видео: ~2731kbps
Размер кадра: 1920x1080
Аудиокодек: AAC
Битрейт аудио: 249kbps
Описание:
Фотограф-энтузиаст из России Данил Васенёв (Danil Vasenev) заинтересовался фотографией в 8-9 классе, когда у него ещё не было фотоаппарата, поэтому снимать молодому фотографу приходилось на телефонную камеру. Через несколько лет он обзавёлся зеркалкой, с которой и началось углублённое изучение фотоискусства.
Молодой фотограф Данил Васенёв максимально использует окружающую среду, чтобы придать своим постановочным портретам сказочный характер.
Пример авторской ретуши и коллажирования в сюрреалистическом стиле с пошаговым
описанием действий и принципов обработки.

До и после:


МедиаИнфо

General
Complete name : H:\tutorials\Данил Васенёв\Мария с венком из роз\Мария с венком из роз.mp4
Format : MPEG-4
Format profile : Base Media
Codec ID : isom
File size : 791 MiB
Duration : 39mn 51s
Overall bit rate : 2 776 Kbps
Writing application : Lavf55.12.100
Video
ID : 2
Format : AVC
Format/Info : Advanced Video Codec
Format profile : [url=mailto:High@L4.2]High@L4.2[/url]
Format settings, CABAC : Yes
Format settings, ReFrames : 2 frames
Codec ID : avc1
Codec ID/Info : Advanced Video Coding
Duration : 39mn 51s
Bit rate : 2 509 Kbps
Width : 1 920 pixels
Height : 1 080 pixels
Display aspect ratio : 16:9
Frame rate mode : Constant
Frame rate : 60.000 fps
Color space : YUV
Chroma subsampling : 4:2:0
Bit depth : 8 bits
Scan type : Progressive
Bits/(Pixel*Frame) : 0.020
Stream size : 715 MiB (90%)
Audio
ID : 1
Format : AAC
Format/Info : Advanced Audio Codec
Format profile : LC
Codec ID : 40
Duration : 39mn 51s
Bit rate mode : Constant
Bit rate : 258 Kbps
Channel count : 2 channels
Channel positions : Front: L R
Sampling rate : 44.1 KHz
Compression mode : Lossy
Stream size : 73.5 MiB (9%)
Скриншоты:

Еще скриншоты

Скачать .torrent

Для того, чтобы скачать торрент-файл

Данил Васенёв - Сказочные фантазии 5 уроков (2014)

с нашего сайта, Вам необходимо Войти на сайт под своим логином! Если у Вас ещё нет логина, тогда Вам нужно сначала Зарегистрироваться!

Как скачивать? · Что такое торрент? · Рейтинг и ограничения

Показать сообщения:    
Ответить на тему

Данил Васенёв - Сказочные фантазии 5 уроков (2014) скачать торрент (torrent), видеоуроки, тренинги, обучающее видео и видеокурсы

Текущее время: Сегодня 01:52

Часовой пояс: GMT + 4



Вы не можете начинать темы
Вы не можете отвечать на сообщения
Вы не можете редактировать свои сообщения
Вы не можете удалять свои сообщения
Вы не можете голосовать в опросах
Вы не можете прикреплять файлы к сообщениям
Вы не можете скачивать файлы