[Profileschool] Алексей Шадрин - Управление визуальным объемом и резкостью изображений (2014)

Ответить на тему
 
Автор Сообщение

Yulya ®

-[Profileschool] Алексей Шадрин - Управление визуальным объемом и резкостью изображений (2014)- Автор (режиссер): [Profileschool] Алексей Шадрин
Жанр: Обучающее видео
Продолжительность: 04:00:43+04:32:14
Качество видео: PCRec
Видеокодек: (H.263)
Битрейт видео: ~141kbps
Размер кадра: 1600x912
Аудиокодек: AAC
Битрейт аудио: 87kbps
Описание:
Каждый, кто работает с фотографией, хорошо знает, что «плоско» звучит как приговор картинке и вашим изобразительным усилиям.
Что нужно для того, чтобы фотоизображение вызывало у зрителя яркую иллюзию глубины пространства? Какой обработке оно должно подвергнуться? Как добиться бритвенной резкости картинки, не лишив ее визуального объема? На эти и многие другие вопросы отвечает Алексей Шадрин — эксперт в сфере визуализации и физиолог зрения.
На двухдневном онлайн семинаре вы познакомитесь с основными законами зрительного восприятия глубины пространства, ее визуальными факторами и методикой управления ими в изображениях; обсудите современные научные подходы к такому управлению, а также программное обеспечение, наиболее подходящее к решению столь непростой задачи; рассмотрите типичные ошибки и неудачи, возникающие на этом пути. Богатый иллюстративный материал поможет закрепить полученные знания.

МедиаИнфо:

General
Complete name : G:\Алексей Шадрин - Управление визуальным объемом и резкостью изображений (2014)\Видео. День 1.mp4
Format : MPEG-4
Format profile : Base Media
Codec ID : isom
File size : 401 MiB
Duration : 4h 0mn
Overall bit rate mode : Variable
Overall bit rate : 233 Kbps
Writing application : AVM.EXE
Video
ID : 1
Format : MPEG-4 Visual
Format profile : Simple@L1
Format settings, BVOP : No
Format settings, QPel : No
Format settings, GMC : No warppoints
Format settings, Matrix : Default (H.263)
Codec ID : 20
Duration : 4h 0mn
Bit rate : 141 Kbps
Width : 1 600 pixels
Height : 912 pixels
Display aspect ratio : 16:9
Frame rate mode : Constant
Frame rate : 10.000 fps
Color space : YUV
Chroma subsampling : 4:2:0
Bit depth : 8 bits
Scan type : Progressive
Compression mode : Lossy
Bits/(Pixel*Frame) : 0.010
Stream size : 243 MiB (61%)
Writing library : Lavc52.72.2
Audio
ID : 2
Format : AAC
Format/Info : Advanced Audio Codec
Format profile : LC
Codec ID : 40
Duration : 4h 0mn
Bit rate mode : Variable
Bit rate : 88.0 Kbps
Channel count : 2 channels
Channel positions : Front: L R
Sampling rate : 44.1 KHz
Compression mode : Lossy
Stream size : 151 MiB (38%)
Скриншоты:
Скачать .torrent

Для того, чтобы скачать торрент-файл

[Profileschool] Алексей Шадрин - Управление визуальным объемом и резкостью изображений (2014)

с нашего сайта, Вам необходимо Войти на сайт под своим логином! Если у Вас ещё нет логина, тогда Вам нужно сначала Зарегистрироваться!

Как скачивать? · Что такое торрент? · Рейтинг и ограничения

Показать сообщения:    
Ответить на тему

[Profileschool] Алексей Шадрин - Управление визуальным объемом и резкостью изображений (2014) скачать торрент (torrent), видеоуроки, тренинги, обучающее видео и видеокурсы

Текущее время: Сегодня 20:16

Часовой пояс: GMT + 4



Вы не можете начинать темы
Вы не можете отвечать на сообщения
Вы не можете редактировать свои сообщения
Вы не можете удалять свои сообщения
Вы не можете голосовать в опросах
Вы не можете прикреплять файлы к сообщениям
Вы не можете скачивать файлы