[learn.javascript.ru] Илья Кантор - Node.JS от А до Я (2013)

Ответить на тему
 
Автор Сообщение

Yulya ®

-[learn.javascript.ru] Илья Кантор - Node.JS от А до Я (2013) Автор (режиссер): learn.javascript.ru | Илья Кантор
Жанр: Программирование
Язык: Русский
Продолжительность: ~06:15:00
Качество видео: PCRec
Видеокодек: H264/MPEG4-AVC
Битрейт видео: ~980-1300 kb/s, 30 FPS
Размер кадра: 1 280 x 800
Аудиокодек: AAC
Битрейт аудио: 44100 Hz, stereo, 252 kb/s
Описание:
Вашему вниманию предлагается скринкаст по Node.JS на русском языке.
При этом — грамотный и современный, с актуальными версиями библиотек.
Его целью не является разбор всех-всех возможностей и модулей Node.JS, ведь многие из них используются очень редко.
С другой стороны, мы очень подробно разберём основные возможности и средства создания веб-сервисов, включая внутренние особенности самого сервера Node.JS, важные для его работы.
Если вы — разработчик, то вам наверняка известно: большинство полезной документации и скринкастов делается на английском.
Конечно, даже на английском много всего устаревшего, приходится порыться, но на русском — всё гораздо хуже. Многого просто нет. Хотелось бы поменять эту ситуацию, с вашей помощью, хотя бы в плане Node.JS.

Состав раздачи

Часть 1: Изучаем Node.JS
  • Введение в Node.JS, об этом скринкасте
  • Что такое Node.JS? Почему Node.JS?
  • Установка и запуск
  • Исходники и документация
  • Модули для Node.JS
  • Приёмы работы с модулями
  • Введение в NPM - менеджер пакетов для Node.JS
  • Структура пакета NPM
  • Глобальные модули
  • Модуль util и наследование
  • Модуль console
  • Наследование от ошибок Error
  • События, EventEmitter и утечки памяти
  • Node.JS как веб-сервер
  • Эхо-сервер на Node.JS
  • Документация к модулю http
  • Разработка, supervisor
  • Отладка скриптов под Node.JS
  • Логирование, модули debug и winston
  • Введение в асинхронную разработку
  • Событийный цикл, библиотека libUV
  • Таймеры, process.nextTick, ref/unref
  • Работа с файлами, модуль fs
  • Безопасный путь к файлу в fs и path
  • Потоки данных в Node.JS, fs.ReadStream
  • Writable поток ответа res, метод pipe
  • Чат через long-polling, чтение POST
  • Домены, «асинхронный try..catch»
  • Чтение параметров из командной строки и окружения-Часть 2: Создаём приложение
    В этой части разные технологии и внешние модули, используемые при NodeJS-разработке будут описаны в контексте создания веб-приложения. Веб-приложение — сайт с чатом, посетителями, базой данных и авторизацией.
  • Создаём костяк сайта / Express: основы и Middleware
  • Улучшаем костяк сайта / Логгер, конфигурация, шаблонка для HTML
  • Улучшаем шаблонизацию / EJS: layout, block, partials
  • Установка MongoDB для Windows, пример работы
  • Начинаем работать с базой / Основы MongoDB, native driver
  • Создаём модель для пользователя / Основы Mongoose
  • Делаем скрипт для создания тестовой базы / Async, организация кода [обновлено]
  • Веб-сервисы, работа с ошибками / Express, Mongoose
  • Сессии, отслеживание посетителей /Express/
  • Авторизация /Express, Mongoose, Async, EJS/
  • COMET: обзор подходов / WS.JS, Sock.JS, Socket.IO
  • Чат на Express и Socket.IO
  • Опции Socket.IO и автореконнект
  • Socket.IO + Express + авторизация

Mediainfo

General
Complete name : 13.top-4-eventemitter.mp4
Format : MPEG-4
Format profile : Base Media / Version 2
Codec ID : mp42
File size : 87.4 MiB
Duration : 8mn 34s
Overall bit rate mode : Variable
Overall bit rate : 1 425 Kbps
Encoded date : UTC 2013-08-24 16:14:15
Tagged date : UTC 2013-08-24 16:16:32
Video
ID : 1
Format : AVC
Format/Info : Advanced Video Codec
Format profile : [url=mailto:Main@L3.2]Main@L3.2[/url]
Format settings, CABAC : Yes
Format settings, ReFrames : 5 frames
Codec ID : avc1
Codec ID/Info : Advanced Video Coding
Duration : 8mn 34s
Bit rate mode : Variable
Bit rate : 1 169 Kbps
Width : 1 280 pixels
Height : 800 pixels
Display aspect ratio : 1.600
Frame rate mode : Constant
Frame rate : 30.000 fps
Color space : YUV
Chroma subsampling : 4:2:0
Bit depth : 8 bits
Scan type : Progressive
Bits/(Pixel*Frame) : 0.038
Stream size : 71.7 MiB (82%)
Encoded date : UTC 2013-08-24 16:14:15
Tagged date : UTC 2013-08-24 16:16:32
Color primaries : BT.709-2, SMPTE 274M, SMPTE 296M
Transfer characteristics : BT.709-2, SMPTE 170M, SMPTE 274M, SMPTE 293M, SMPTE 296M
Matrix coefficients : BT.709-2, SMPTE 274M, SMPTE 296M
Audio
ID : 2
Format : AAC
Format/Info : Advanced Audio Codec
Format profile : LC
Codec ID : 40
Duration : 8mn 34s
Bit rate mode : Variable
Bit rate : 252 Kbps
Maximum bit rate : 367 Kbps
Channel(s) : 2 channels
Channel positions : Front: L R
Sampling rate : 44.1 KHz
Compression mode : Lossy
Delay relative to video : -200ms
Stream size : 15.4 MiB (18%)
Encoded date : UTC 2013-08-24 16:14:15
Tagged date : UTC 2013-08-24 16:14:34
-Выпуски были записаны в конце 2013, версия Node 0.10.
Код к большинству выпусков находится в приложенной папке.
Скриншоты:
Скачать .torrent

Для того, чтобы скачать торрент-файл

[learn.javascript.ru] Илья Кантор - Node.JS от А до Я (2013)

с нашего сайта, Вам необходимо Войти на сайт под своим логином! Если у Вас ещё нет логина, тогда Вам нужно сначала Зарегистрироваться!

Как скачивать? · Что такое торрент? · Рейтинг и ограничения

Показать сообщения:    
Ответить на тему

[learn.javascript.ru] Илья Кантор - Node.JS от А до Я (2013) скачать торрент (torrent), видеоуроки, тренинги, обучающее видео и видеокурсы

Текущее время: Сегодня 06:00

Часовой пояс: GMT + 4



Вы не можете начинать темы
Вы не можете отвечать на сообщения
Вы не можете редактировать свои сообщения
Вы не можете удалять свои сообщения
Вы не можете голосовать в опросах
Вы не можете прикреплять файлы к сообщениям
Вы не можете скачивать файлы