Мария Струтинская - МК по обработке фото (2014)

Ответить на тему
 
Автор Сообщение

Yulya ®

-Мария Струтинская - МК по обработке фото (2014)- Автор (режиссер): Мария Струтинская
Жанр: Обучающее видео
Продолжительность: 02:08:55
Качество видео: PCRec
Видеокодек: XVID
Битрейт видео: ~430 Kbps
Размер кадра: 1920x1080
Аудиокодек: MP3
Битрейт аудио: 128kbps
Описание:
Программа:
Секреты съемки «объемных» фотографий, композиция.
Съемка против солнца без дополнительных приспособлений – миф или реальность?
Особенности съемки в солнечный полдень, пасмурный день, на закатном солнце.
Пример полной съемки.
Lightroom и конвертация.
Отбор фотографий для ретуши.
Обработка в Photoshop:
- портретная ретушь (кожа/глаза/волосы),
- цветокоррекция различных сюжетов (лето, осень, зима, солнечно/пасмурно)
- исправление возможных ошибок, сделанных при съемке
- секрет «свечения» и объемности фотографий
- «эльфийское» тонирование
- обработка студийных фотографий
- Всего я показываю обработку более чем 20-ти фотографий.

МедиаИифо:

General
Complete name : ........Мария Струтинская - МК по обработке фото (2014).avi
Format : AVI
Format/Info : Audio Video Interleave
File size : 397 MiB
Duration : 2h 8mn
Overall bit rate : 430 Kbps
Video
ID : 0
Format : MPEG-4 Visual
Format profile : Advanced Simple@L5
Format settings, BVOP : Yes
Format settings, QPel : No
Format settings, GMC : No warppoints
Format settings, Matrix : Default (H.263)
Codec ID : XVID
Codec ID/Hint : XviD
Duration : 2h 8mn
Bit rate : 300 Kbps
Width : 1 920 pixels
Height : 1 080 pixels
Display aspect ratio : 16:9
Frame rate : 8.000 fps
Original frame rate : 25.000 fps
Color space : YUV
Chroma subsampling : 4:2:0
Bit depth : 8 bits
Scan type : Progressive
Compression mode : Lossy
Bits/(Pixel*Frame) : 0.018
Stream size : 277 MiB (70%)
Writing library : XviD 64
Audio
ID : 1
Format : MPEG Audio
Format version : Version 1
Format profile : Layer 3
Codec ID : 55
Codec ID/Hint : MP3
Duration : 2h 8mn
Bit rate mode : Constant
Bit rate : 128 Kbps
Channel count : 1 channel
Sampling rate : 48.0 KHz
Compression mode : Lossy
Stream size : 118 MiB (30%)
Alignment : Aligned on interleaves
Interleave, duration : 125 ms (1.00 video frame)
Interleave, preload duration : 144 ms
Скриншоты:
Скачать .torrent

Для того, чтобы скачать торрент-файл

Мария Струтинская - МК по обработке фото (2014)

с нашего сайта, Вам необходимо Войти на сайт под своим логином! Если у Вас ещё нет логина, тогда Вам нужно сначала Зарегистрироваться!

Как скачивать? · Что такое торрент? · Рейтинг и ограничения

Показать сообщения:    
Ответить на тему

Мария Струтинская - МК по обработке фото (2014) скачать торрент (torrent), видеоуроки, тренинги, обучающее видео и видеокурсы

Текущее время: Сегодня 13:42

Часовой пояс: GMT + 4



Вы не можете начинать темы
Вы не можете отвечать на сообщения
Вы не можете редактировать свои сообщения
Вы не можете удалять свои сообщения
Вы не можете голосовать в опросах
Вы не можете прикреплять файлы к сообщениям
Вы не можете скачивать файлы