Александр Киселев и Галина Исаева - Обучающий курс по съемке Love Story (2014)

Ответить на тему
 
Автор Сообщение

Yulya ®

-Александр Киселев и Галина Исаева - Обучающий курс по съемке Love Story (2014)- Автор (режиссер): Александр Киселев и Галина Исаева
Жанр: Обучающее видео
Продолжительность: 00:10:59+00:42:52+00:26:31+00:36:46
Качество видео: WEB-DLRip
Видеокодек: AVC (H264)
Битрейт видео: ~5000~10000
Размер кадра: 1920x1080
Аудиокодек: AAC
Битрейт аудио: 192 Kbps
Описание:
С вами Александр Киселев и Галина Исаева!
Мы провели много воркшопов и в итоге поняли, что накопили столько знаний, что обязательно должны поделиться ими!
Так родился наш курс по съемке Lovestory, подробно описывающий процесс создания красивых серий о любви от самого начала и до конца!
В данном курсе мы:
расскажем, как взять простой сюжет и создать из него серию кадров
научим продумывать внешний вид моделей, макияж, аксессуары
объясним, как выбрать подходящую локацию. Расскажем, что работает, а что нет
покажем сам процесс фотосъемки с анализом РАКУРСОВ и ПЛАНОВ!
покажем, как проводить сортировку кадров под историю, выстраивание цепочки событий, хронологию
научим нашей обработке!!!

Содержание:

0. Оборудование
1. Атмосферная фотосессия с воркшопа в городе Ставрополь, интересная и трогательная пара: Константин и Анастасия.
2. Паша и Лена в туманном лесу — экспериментальная love story фотосессия с использованием различного реквизита (свечки, веточки, баночки) и видео света.
3. Милая и нежная серия на лесной поляне с веселой парой: Полина и Виталий. Простой сюжет, драматичный пейзаж и отличные эмоции.

MediaInfo:

General
Complete name : H:\tutorials\Александр Киселев\Александр Киселев и Галина Исаева - Обучающий курс по съемке Love Story (2014)\2. Лена и Паша [В туманном лесу]\1. Лена и Паша [Подготовка].mp4
Format : MPEG-4
Codec ID : M4V
File size : 220 MiB
Duration : 6mn 30s
Overall bit rate mode : Variable
Overall bit rate : 4 738 Kbps
Encoded date : UTC 2014-11-01 20:23:08
Tagged date : UTC 2014-11-01 20:23:10
©TIM : 00:00:00:00
©TSC : 24000
©TSZ : 1001
Video
ID : 1
Format : AVC
Format/Info : Advanced Video Codec
Format profile : [url=mailto:Main@L4.1]Main@L4.1[/url]
Format settings, CABAC : No
Format settings, ReFrames : 2 frames
Format settings, GOP : M=1, N=23
Codec ID : avc1
Codec ID/Info : Advanced Video Coding
Duration : 6mn 30s
Bit rate mode : Variable
Bit rate : 4 545 Kbps
Maximum bit rate : 6 000 Kbps
Width : 1 920 pixels
Height : 1 080 pixels
Display aspect ratio : 16:9
Frame rate mode : Constant
Frame rate : 23.976 fps
Standard : NTSC
Color space : YUV
Chroma subsampling : 4:2:0
Bit depth : 8 bits
Scan type : Progressive
Bits/(Pixel*Frame) : 0.091
Stream size : 211 MiB (96%)
Language : English
Encoded date : UTC 2014-11-01 20:23:08
Tagged date : UTC 2014-11-01 20:23:08
Audio
ID : 2
Format : AAC
Format/Info : Advanced Audio Codec
Format profile : LC
Codec ID : 40
Duration : 6mn 30s
Source duration : 6mn 30s
Bit rate mode : Variable
Bit rate : 192 Kbps
Maximum bit rate : 295 Kbps
Channel count : 2 channels
Channel positions : Front: L R
Sampling rate : 48.0 KHz
Compression mode : Lossy
Stream size : 8.81 MiB (4%)
Source stream size : 8.81 MiB (4%)
Language : English
Encoded date : UTC 2014-11-01 20:23:08
Tagged date : UTC 2014-11-01 20:23:08
В курсе не хватает 4 и 5 части, как появятся добавлю
Скриншоты:
Скачать .torrent

Для того, чтобы скачать торрент-файл

Александр Киселев и Галина Исаева - Обучающий курс по съемке Love Story (2014)

с нашего сайта, Вам необходимо Войти на сайт под своим логином! Если у Вас ещё нет логина, тогда Вам нужно сначала Зарегистрироваться!

Как скачивать? · Что такое торрент? · Рейтинг и ограничения

Показать сообщения:    
Ответить на тему

Александр Киселев и Галина Исаева - Обучающий курс по съемке Love Story (2014) скачать торрент (torrent), видеоуроки, тренинги, обучающее видео и видеокурсы

Текущее время: Сегодня 23:24

Часовой пояс: GMT + 4



Вы не можете начинать темы
Вы не можете отвечать на сообщения
Вы не можете редактировать свои сообщения
Вы не можете удалять свои сообщения
Вы не можете голосовать в опросах
Вы не можете прикреплять файлы к сообщениям
Вы не можете скачивать файлы