Специалист - Учет налога на прибыль и особенности применения ПБУ 18/02 (2011)

Ответить на тему
 
Автор Сообщение

Yulya ®

-Специалист - Учет налога на прибыль и особенности применения ПБУ 18/02 (2011)- Автор (режиссер): Специалист
Жанр: Бухгалтерия
Продолжительность: 10:50:04
Качество видео: PCRec
Видеокодек: G2M3
Битрейт видео: ~109 kb/s, 29,970 FPS
Размер кадра: 1024x768
Аудиокодек: WMA
Описание:
В рамках программы курса будут рассмотрены ключевые аспекты по применению ПБУ 18/02, формированию постоянных и отложенных налоговых активов и обязательств, отражению постоянных, отложенных налоговых активов и обязательств в бухгалтерском учете, источникам возникновения разниц в бухгалтерском и налоговом учете и их влияние на величину прибыли.
Курс является прикладным. Он рассчитан на бухгалтеров, главных бухгалтеров, руководителей, специалистов финансовых и бухгалтерских служб, внутренних аудиторов. Курс будет интересен налоговым юристам, налоговым консультантам. Курс будет полезен для специалистов, желающих повысить свои профессиональные знания в бухгалтерском учете и налогообложении.

Программа курса

  • Модуль 1. Основные задачи и цели ПБУ 18/02
  • Модуль 2. Условный расход (условный доход) по налогу на прибыль
  • Модуль 3. Постоянные и временные разницы
    › Положительные и отрицательные постоянные разницы
    › Вычитаемые и налогооблагаемые временные разницы
  • Модуль 4. Формирование постоянных и отложных налоговых активов и обязательств и отражение их на счетах бухгалтерского учета
  • Модуль 5. Списание отложенных налогов при выбытии объекта
  • Модуль 6. Трансформация временных разниц в постоянные
  • Модуль 7. Определение величины текущего налога на прибыль
    › Формирование налоговой базы
    › Исчисление налога на прибыль в соответствии с ПБУ 18/02
  • Модуль 8. Особенности заполнения отчета о прибылях и убытках при применении ПБУ 18/02
  • Модуль 9. Сложные вопросы, возникшие при применении ПБУ 18/02
    › Возникновение постоянных и временных разниц при учете амортизационного имущества
    › Разницы при нормировании расходов
    › Применение ПБУ 18/02 при списании прямых расходов
    › Учет операций по безвозмездной передаче ценностей по ПБУ 18/02
    › Исправление ошибок прошлых лет
    › Особенности применения ПБУ 18/02 в убыточном периоде
    › Расходы, не учитываемые в целях налогообложения
    › Необоснованные расходы
    › Различия в бухгалтерском и налоговом учете процентов по заемным средствам
    › Бухгалтерский и налоговый учет излишков и недостачи, выявленных при инвентаризации

Цель курса:

Дать навыки и изучить специфику применения ПБУ 18/02. Рассмотреть различия в порядке, условиях и моменте признания доходов и расходов в налоговом и бухгалтерском учете. На практических примерах рассмотреть отражение постоянных и отложенных налоговых активов и обязательств. Научиться рассчитывать налог на прибыль по правилам ПБУ 18/02 и отражать информацию по налогу на прибыль в формах бухгалтерской отчетности.

По окончании курса Вы будете уметь:

  • Отражать постоянные и отложенные активы и обязательства на счетах бухгалтерского учета с применением ПБУ 18/02
  • Определять финансовый результат и рассчитывать налог на прибыль согласно ПБУ 18/02
  • Отражать информацию по расчету налога на прибыль в формах бухгалтерской отчетности

По окончании курса Вы будете знать:

  • Какие факторы влияют на состав разниц в оценке доходов, расходов, активов и обязательств
  • Особенности применения ПБУ 18/02 в организациях

MediaInfo:

Общее
Полное имя : D:\Загрузки\Cеминар Учет налога на прибыль и особенности применения ПБУ 1802\2011-04-19 18.37 PBUL 19_04_25_04 B v.wmv
Формат : Windows Media
Размер файла : 195 Мбайт
Продолжительность : 2 ч. 51 м.
Режим общего битрейта : Переменный
Общий поток : 159 Кбит/сек
Максимальный общий битрейт : 290 Кбит/сек
Дата кодирования : UTC 2011-04-19 14:37:53.562
Видео
Идентификатор : 3
Формат : GoToMeeting3
Идентификатор кодека : G2M3
Идентификатор кодека/Информация : Citrix Systems, Inc.
Продолжительность : 2 ч. 51 м.
Вид битрейта : Переменный
Битрейт : 109 Кбит/сек
Ширина : 1024 пикселя
Высота : 768 пикселей
Соотношение сторон : 4:3
Частота кадров : 29,970 кадров/сек
Битовая глубина : 8 бит
Бит/(Пиксели*Кадры) : 0.005
Размер потока : 133 Мбайт (68%)
Язык : Russian (RU)
Аудио
Идентификатор : 1
Формат : WMA
Версия формата : Version 2
Идентификатор кодека : 161
Идентификатор кодека/Информация : Windows Media Audio
Описание кодека : Windows Media Audio 9 - 48 kbps, 44 kHz, mono 1-pass CBR
Продолжительность : 2 ч. 51 м.
Вид битрейта : Постоянный
Битрейт : 48,0 Кбит/сек
Каналы : 1 канал
Частота : 44,1 КГц
Битовая глубина : 16 бит
Размер потока : 58,9 Мбайт (30%)
Язык : Russian
Скриншоты:
Скачать .torrent

Для того, чтобы скачать торрент-файл

Специалист - Учет налога на прибыль и особенности применения ПБУ 18/02 (2011)

с нашего сайта, Вам необходимо Войти на сайт под своим логином! Если у Вас ещё нет логина, тогда Вам нужно сначала Зарегистрироваться!

Как скачивать? · Что такое торрент? · Рейтинг и ограничения

nightwolf867

спасибо за отличный курс, только это не ПБУ 18, а основы предпринимательства)
Показать сообщения:    
Ответить на тему

Специалист - Учет налога на прибыль и особенности применения ПБУ 18/02 (2011) скачать торрент (torrent), видеоуроки, тренинги, обучающее видео и видеокурсы

Текущее время: Сегодня 02:55

Часовой пояс: GMT + 4



Вы не можете начинать темы
Вы не можете отвечать на сообщения
Вы не можете редактировать свои сообщения
Вы не можете удалять свои сообщения
Вы не можете голосовать в опросах
Вы не можете прикреплять файлы к сообщениям
Вы не можете скачивать файлы