Специалист - 1С:Предприятие 8. Управление торговлей (ред.11). Уровень 2. Расширенные возможности (2012)

Ответить на тему
 
Автор Сообщение

Yulya ®

-Специалист - 1С:Предприятие 8. Управление торговлей (ред.11). Уровень 2. Расширенные возможности (2012)- Автор (режиссер): Специалист
Жанр: Бухгалтерия, маркетинг, логистика и закупки
Продолжительность: 10:49:22
Качество видео: PCRec
Видеокодек: VC-1
Битрейт видео: ~240 kb/s, 8,000 FPS
Размер кадра: 1040х784, 1044x788
Аудиокодек: WMA
Битрейт аудио: 320 kb/s (CBR), 2 Ch, 44100 Hz
Описание:
Курс является продолжением курса «1С:Управление торговлей 11. Уровень 1». Цель курса – научиться самостоятельно автоматизировать процессы планирования, отгрузки и анализа продаж. Данный курс является одним из этапов подготовки к сертифицированному экзамену 1С. Курс позволит развить практические навыки по работе с программой.
Курс предназначен для подготовки менеджеров торговых предприятий, уже работающих в программе, и желающих грамотно автоматизировать процесс ведения учета, с использованием типового функционала программы.

Программа курса

  • Модуль 1. Ордерная схема. Сделки и коммерческие предложения.
    › Закупка товара с использованием ордерной схемы. Типовой документооборот.
    › Продажа товара с использованием ордерной схемы. Типовой документооборот.
    › Понятие сделки. Этапы работы со сделками.
    › Коммерческие предложения.
    › Создание правил продаж.
    › Типовые соглашения по условиям продаж.
  • Модуль 2. Розница. Отражение типовой схемы документооборота в программе.
    › Автоматизированная и неавтоматизированная торговая точка. Настройка торговых точек.
    › Назначение цен и скидок в торговой точке.
    › Печать ценников.
    › Розничные продажи в автоматизированной торговой точке. Реализация с оплатой наличными и платежными картами.
    › Розничные продажи в неавтоматизированной торговой точке.
    › Анализ розничных продаж.
  • Модуль 3. Комиссионная торговля.
    › Поступление товара от комитента.
    › Реализация товаров, полученных от комитента.
    › Отчет комитенту о продажах.
    › Возврат товаров комитенту.
    › Передача товаров на комиссию.
    › Отчет комиссионера.
    › Анализ комиссионных операций.
  • Модуль 4. Планирование и финансовый анализ.
    › Методы управления запасами. Товарные ограничения
    › Планы продаж. Планирование объемов продаж
    › Определение финансового результата. Анализ доходов и расходов.
    › Обмен данными с программой Бухгалтерия предприятия.

По окончании курса Вы будете уметь:

  • По окончании курса Вы будете уметь:
  • Работать сегментами
  • Создавать правила продаж
  • Настраивать и оформлять отгрузку товара с розничного склада
  • Отражать операции по комиссии
  • Управлять запасами
  • Планировать и анализировать продажи

MediaInfo:

Общее
Полное имя : D:\Загрузки\nnm\УТ11[СПЕЦИАЛИСТ]\УТ 11.Уровень 2. Расширенные возможности\1.wmv
Формат : Windows Media
Размер файла : 383 Мбайт
Продолжительность : 1 ч. 22 м.
Режим общего битрейта : Переменный
Общий поток : 651 Кбит/сек
Максимальный общий битрейт : 914 Кбит/сек
Дата кодирования : UTC 2012-12-23 07:37:26.162
Видео
Идентификатор : 1
Формат : VC-1
Профиль формата : MP@HL
Идентификатор кодека : WMV3
Идентификатор кодека/Информация : Windows Media Video 9
Идентификатор кодека/Подсказка : WMV3
Описание кодека : Windows Media Video 9
Продолжительность : 1 ч. 22 м.
Вид битрейта : Переменный
Битрейт : 240 Кбит/сек
Ширина : 1040 пикселей
Высота : 784 пикселя
Соотношение сторон : 4:3
Частота кадров : 8,000 кадров/сек
Цветовое пространство : YUV
Субдискретизация насыщенности : 4:2:0
Битовая глубина : 8 бит
Тип развёртки : Прогрессивная
Метод сжатия : С потерями
Бит/(Пиксели*Кадры) : 0.037
Размер потока : 141 Мбайт (37%)
Язык : Russian
Аудио
Идентификатор : 2
Формат : WMA
Версия формата : Version 2
Идентификатор кодека : 161
Идентификатор кодека/Информация : Windows Media Audio
Описание кодека : Windows Media Audio 9.2 - 320 kbps, 44 kHz, stereo (A/V) 1-pass CBR
Продолжительность : 1 ч. 22 м.
Вид битрейта : Постоянный
Битрейт : 320 Кбит/сек
Каналы : 2 канала
Частота : 44,1 КГц
Битовая глубина : 16 бит
Размер потока : 188 Мбайт (49%)
Язык : Russian
Скачать .torrent

Для того, чтобы скачать торрент-файл

Специалист - 1С:Предприятие 8. Управление торговлей (ред.11). Уровень 2. Расширенные возможности (2012)

с нашего сайта, Вам необходимо Войти на сайт под своим логином! Если у Вас ещё нет логина, тогда Вам нужно сначала Зарегистрироваться!

Как скачивать? · Что такое торрент? · Рейтинг и ограничения

Показать сообщения:    
Ответить на тему

Специалист - 1С:Предприятие 8. Управление торговлей (ред.11). Уровень 2. Расширенные возможности (2012) скачать торрент (torrent), видеоуроки, тренинги, обучающее видео и видеокурсы

Текущее время: Сегодня 05:15

Часовой пояс: GMT + 4



Вы не можете начинать темы
Вы не можете отвечать на сообщения
Вы не можете редактировать свои сообщения
Вы не можете удалять свои сообщения
Вы не можете голосовать в опросах
Вы не можете прикреплять файлы к сообщениям
Вы не можете скачивать файлы