Последнее из V.I.P.-раздела

10-Авг
10-Авг
10-Авг
10-Авг
10-Авг
10-Авг
10-Авг
10-Авг
10-Авг
10-Авг
10-Авг
10-Авг
10-Авг
10-Авг
10-Авг
10-Авг
10-Авг
09-Авг
09-Авг
09-Авг

Новости о коронавирусе

Специалист - 1С:Предприятие 8. Управление торговлей (ред.11). Уровень 1. Торговые и складские операции (2012)

Ответить на тему
 
Автор Сообщение

Yulya ®

-Специалист - 1С:Предприятие 8. Управление торговлей (ред.11). Уровень 1. Торговые и складские операции (2012)- Автор (режиссер): Специалист
Жанр: Бухгалтерия, маркетинг, логистика и закупки
Продолжительность: 11:23:49
Качество видео: PCRec
Видеокодек: VC-1
Битрейт видео: ~194 kb/s, 14,000 FPS
Размер кадра: 1024х722, 1028х724, 1020х728
Аудиокодек: WMA
Битрейт аудио: 320 kb/s (CBR), 2 Ch, 44100 Hz
Описание:
Курс посвящен изучению возможностей программы «1С: Управление торговлей 11», позволяющей вести автоматизированный оперативный и управленческий учет. Данный курс является одним из этапов подготовки к сертифицированному экзамену «1С».
Учебный курс позволит освоить технологию работы с конфигурацией и развить практические навыки по работе с программой.
Сквозной пример, который рассматривается на курсе, знакомит слушателей со всеми необходимыми в работе навыками, начиная от заполнения исходных сведений об организации, ввода справочной информации и заканчивая анализом продаж. Программа позволяет подготавливать, реализовывать и контролировать торговые и складские операции, отслеживать работу исполнителей.
Курс предназначен для подготовки менеджеров торговых предприятий, желающих освоить самую массовую программу по автоматизации планирования и реализации торговых операций «1С: Управление торговлей 11».

Программа курса

  • Модуль 1. Настройка программы на учет
    › Основные функциональные возможности
    › Ввод списка пользователей
    › Ввод сведений об организации
    › Настройка параметров учета
    › Заполнение базовых классификаторов
  • Модуль 2. Сведения о номенклатуре и контрагентах
    › Виды и характеристики номенклатуры. Ввод номенклатурных позиций.
    › Списки сегментов. Правила формирования сегментов.
    › Настройка сегментов номенклатуры.
    › Ввод сведений о партнерах и контрагентах организации.
    › Формирование сегментов партнеров.
    › Виды цен номенклатуры.
  • Модуль 3. Ценообразование
    › Установка цен номенклатуры.
    › Диапазоны цен. Назначение и изменение цен.
    › Объединение товаров в ценовые группы.
    › Скидки (наценки).
    › Оформление соглашений с поставщиками. Основные параметры. Регистрация цен поставщика.
  • Модуль 4. Оптовая торговля. Закупка товара. Отражение типовой схемы документооборота в программе
    › Оформление заказа поставщику. Статус заказа.
    › Поступление товара от поставщика.
    › Оплата поставщику.
    › Отчеты «Состояние выполнения заказов», «Состояние расчетов с поставщиком», « карточка расчетов с поставщиком».
    › Возврат поставщику.
  • Модуль 5. Оптовая торговля. Продажи. Отражение типовой схемы документооборота в программе
    › Формирование отпускных цен.
    › Установка скидок.
    › Создание заказа. Согласование заказа. Выставление счета.
    › Отгрузка товара.
    › Поступление оплаты от покупателя.
    › Анализ продаж.
  • Модуль 6. Оптовая торговля. Складские операции
    › Возврат товаров от покупателя.
    › Складское перемещение товаров.
    › Инвентаризация товаров.
    › Списание, оприходование товаров.
    › Отчеты. Настройка отчета, создание и сохранение собственных вариантов отчетов.

По окончании курса Вы будете уметь:

  • Работать со справочниками программы
  • Регистрировать торговые и складские документы
  • Оформлять закупку товара
  • Оформлять отгрузку товара.
  • Регистрировать складские операции
  • Формировать отчетность.

MediaInfo:

Общее
Полное имя : D:\Загрузки\nnm\УТ11[СПЕЦИАЛИСТ]\УТ 11.Уровень 1. Торговые и складские операции\1.wmv
Формат : Windows Media
Размер файла : 352 Мбайт
Продолжительность : 1 ч. 21 м.
Режим общего битрейта : Переменный
Общий поток : 606 Кбит/сек
Максимальный общий битрейт : 891 Кбит/сек
Дата кодирования : UTC 2012-12-14 01:42:37.887
Видео
Идентификатор : 1
Формат : VC-1
Профиль формата : MP@HL
Идентификатор кодека : WMV3
Идентификатор кодека/Информация : Windows Media Video 9
Идентификатор кодека/Подсказка : WMV3
Описание кодека : Windows Media Video 9
Продолжительность : 1 ч. 21 м.
Вид битрейта : Переменный
Битрейт : 194 Кбит/сек
Ширина : 1024 пикселя
Высота : 772 пикселя
Соотношение сторон : 4:3
Частота кадров : 14,000 кадров/сек
Цветовое пространство : YUV
Субдискретизация насыщенности : 4:2:0
Битовая глубина : 8 бит
Тип развёртки : Прогрессивная
Метод сжатия : С потерями
Бит/(Пиксели*Кадры) : 0.018
Размер потока : 113 Мбайт (32%)
Язык : Russian
Аудио
Идентификатор : 2
Формат : WMA
Версия формата : Version 2
Идентификатор кодека : 161
Идентификатор кодека/Информация : Windows Media Audio
Описание кодека : Windows Media Audio 9.2 - 320 kbps, 44 kHz, stereo (A/V) 1-pass CBR
Продолжительность : 1 ч. 21 м.
Вид битрейта : Постоянный
Битрейт : 320 Кбит/сек
Каналы : 2 канала
Частота : 44,1 КГц
Битовая глубина : 16 бит
Размер потока : 186 Мбайт (53%)
Язык : Russian
Скриншоты:
Показать сообщения:    
Ответить на тему

Специалист - 1С:Предприятие 8. Управление торговлей (ред.11). Уровень 1. Торговые и складские операции (2012) скачать торрент (torrent), видеоуроки, тренинги, обучающее видео и видеокурсы

Текущее время: Сегодня 10:15

Часовой пояс: GMT + 4



Вы не можете начинать темы
Вы не можете отвечать на сообщения
Вы не можете редактировать свои сообщения
Вы не можете удалять свои сообщения
Вы не можете голосовать в опросах
Вы не можете прикреплять файлы к сообщениям
Вы не можете скачивать файлы