Lynda.com - Грамотно меняем фон в Фотошопе (2014)

Ответить на тему
 
Автор Сообщение

Yulya ®

-Lynda.com | Грамотно меняем фон в Фотошопе (2014) [PCRec]- Автор (режиссер): Lynda.com
Оригинальное название: Portrait Project Changing a Studio Background
Перевод: Одноголосый закадровый
Автор перевода: volq0
Жанр: Фотошоп
Продолжительность: 00:00:58
Качество видео: PCRec
Видеокодек: AVC
Битрейт видео: ~3591Kbps, 29.97fps
Размер кадра: 1280x800
Аудиокодек: MP3
Битрейт аудио: 48000Hz stereo 128kbps
Описание:
У вас есть фотография, на которой вам нравится ваше изображение, но не нравится фон и остальное окружение, вы хотите вырезать удачное изображение и вставить его в понравившийся интрерьер - этот видеокурс поможет вам справиться с этим делом.
В этом видеоуроке описываются подробные шаги по смене фона, показано как вырезать фотографию, вклеивать в интересный интерьер, грамотно менять освещение. На выходе мы получаем фотографию, не отличимую от реальной!

Дополнительная информация:

Об авторе:
Крис Орвиг - знаменитый фотограф и учитель. На сайте видеокурсов Lynda насчитывается более 70 уроков по работе с фотографиями. В настоящий момент работает в институте Брукс в Санта Барбаре, Калифорния.

MI

General
Полное имя : D:\Андрей\Portrait Project. Changing a Studio Background (2014)\01. Вступление\RU_01_01 Вступление.avi
Формат : AVI
Формат/Информация : Audio Video Interleave
Размер файла : 30.5 MiB
Продолжительность : 1mn 8s
Общий поток : 3 732 Kbps
Программа кодирования : VirtualDubMod 1.5.10.2 (build 2540/release)
Библиотека кодирования : VirtualDubMod build 2540/release
Video
Идентификатор : 0
Формат : AVC
Формат/Информация : Advanced Video Codec
Профиль формата : [url=mailto:Main@L3.2]Main@L3.2[/url]
Параметр CABAC формата : Yes
Параметр ReFrames формата : 1 frame
Параметр GOP формата : N=1
Идентификатор кодека : X264
Идентификатор кодека/Информация : XiWave GNU GPL x264 MPEG-4
Продолжительность : 1mn 8s
Битрейт : 3 591 Kbps
Ширина : 1 280 pixels
Высота : 800 pixels
Соотношение сторон : 1.600
Частота кадров : 29.970 fps
Цветовое пространство : YUV
Субдискретизация насыщенности : 4:2:0
Битовая глубина : 8 bits
Тип развёртки : Progressive
Бит/(Пиксели*Кадры) : 0.117
Размер потока : 29.4 MiB (96%)
Audio
Идентификатор : 1
Формат : MPEG Audio
Версия формата : Version 1
Профиль формата : Layer 3
Идентификатор кодека : 55
Идентификатор кодека/Подсказка : MP3
Продолжительность : 1mn 8s
Вид битрейта : Constant
Битрейт : 128 Kbps
Каналы : 2 channels
Частота : 48.0 KHz
Метод сжатия : Lossy
Размер потока : 1.05 MiB (3%)
Выравнивание : Aligned on interleaves
Продолжительность промежутка : 34 ms (1.01 video frame)
Время предзагрузки промежутка : 504 ms
Скриншоты:
Скачать .torrent

Для того, чтобы скачать торрент-файл

Lynda.com - Грамотно меняем фон в Фотошопе (2014)

с нашего сайта, Вам необходимо Войти на сайт под своим логином! Если у Вас ещё нет логина, тогда Вам нужно сначала Зарегистрироваться!

Как скачивать? · Что такое торрент? · Рейтинг и ограничения

Евгений232

Сейчас глянем
Показать сообщения:    
Ответить на тему

Lynda.com - Грамотно меняем фон в Фотошопе (2014) скачать торрент (torrent), видеоуроки, тренинги, обучающее видео и видеокурсы

Текущее время: Сегодня 20:43

Часовой пояс: GMT + 4



Вы не можете начинать темы
Вы не можете отвечать на сообщения
Вы не можете редактировать свои сообщения
Вы не можете удалять свои сообщения
Вы не можете голосовать в опросах
Вы не можете прикреплять файлы к сообщениям
Вы не можете скачивать файлы