Василий Терентьев - EDM: Коммерческое Сведение и Мастеринг (2014)

Ответить на тему
 
Автор Сообщение

Yulya ®

-Василий Терентьев - EDM: Коммерческое Сведение и Мастеринг (2014)- Автор (режиссер): Василий Терентьев
Жанр: Звукорежиссура
Язык: Русский
Продолжительность: 01:12:01
Качество видео: PCRec
Видеокодек: AVC/H.264
Битрейт видео: ~997 Kbps, 30.000 fps
Размер кадра: 1280x720, 16:9
Аудиокодек: AAC
Битрейт аудио: ~192 Kbps, 2 channels, 44.1 KHz
Описание: Видеокурс построен на примерах преимущественно в стиле Big Room. Впрочем все эти приемы с успехом широко применяются и в других стилях EDM.
В курсе подробно рассматриваются все составляющие любого EDM трека:
- Яма
- Разгон
- Дроп
Видеокурс состоит из 3 частей:
1. Улучшение инструментов.
2. Сведение. Сочетание всех элементов между собой.
3. Мастеринг.
Мы создали практический курс который обязательно нужно посмотреть и применить на практике. Если вы пройдете этот курс, то мы уверены, что вы забудете свои вопросы, на которые долгое время искали ответы.

Дополнительная информация:

Курс полностью раскроет нужные нюансы получения коммерческого звучания EDM треков, благодаря нашему опыту, мы передаем лучшие знания Вам чтобы вы смогли пополнить свой багаж знаниями, тем самым заинтересовать слушателей и добиться успеха.
Этот видеокурс содержит 35 приемов и трюков, они составляют пошаговую инструкцию, следуя которой вы получите чистое, широкое и впечатляющее звучание, как у DVVBS, Martin Garrix, Dimitri Vegas, Firebeatz, Nicky Romero.
P.S. от Василия Терентьева:
Ребят, мое участие в rustuts.com больше не существует.
Если у Вас возникли вопросы по поводу видео записей обращайтесь на почту техническим деятелям RusTuts.com,
E-mail: [url=mailto:team@rustuts.com]team@rustuts.com[/url], именно они решили закрыть сайт, и заблокировать видео курсы. Мои авторские уроки больше не будут в сотрудничестве с экс-коллегами. Если Вы вдруг увидите их в последующем времени или в продаже, пожалуйста немедленно сообщите мне в ЛС.

Содержание:

Kick
1. Настройка в тональность
2. Повышение читаемости
3. Склеивание слоев
4. Усиление панча
5. Чистка от призвуков
Bass
6. Правильный сайдчейн
7. Улучшение читаемости
8. Добавление глубины
9. Саб в моно, верх в стерео
10. Мид-сайд обработка
Drums
11. Сочетание снейра/клэпа с киком
12. Усиление читаемости снейра
13. Прозрачные и яркие хэты
14. Эффектная перкуссия
15. Как обходиться с лупами
Lead
16. Энергичные лиды в яме
17. Мощные лиды в дропе
18. Разгон из уже имеющихся звуков
19. Креативная обработка разгона
Mix
20. Как должен звучать кик в миксе
21. Как вписать бас в микс
22. Слаженность ударных.
23. Что необходимо для мощного дропа
24. Энергичное звучание лидов в яме
25. Эффектный разгон
26. Сочетание спецэффектов в миксе
Mastering
27. Работать ли в том же проекте
28. Как сделать трек ярче
29. Как добавить треку глубину
30. Как сохранить динамику
31. Как сохранить энергетику дропов
32. Контроль низких частот
33. Моносовместимость
34. Широкое звучание
35. Как добиться желаемой громкости

MediaInfo:

General
Complete name : H:\Фильмы\Василий Терентьев - EDM коммерческое сведение и мастеринг\1.Kick\01 Kick Настройка в тональность.mp4
Format : MPEG-4
Format profile : Base Media / Version 2
Codec ID : mp42
File size : 16.7 MiB
Duration : 1mn 57s
Overall bit rate : 1 192 Kbps
Encoded date : UTC 2014-06-16 18:47:35
Tagged date : UTC 2014-06-16 18:47:35
gsst : 0
gstd : 117678
gssd : B4A7D0DE4MH1403091877972022
gshh : r13---sn-4g57lnld.googlevideo.com
Video
ID : 1
Format : AVC
Format/Info : Advanced Video Codec
Format profile : [url=mailto:High@L3.1]High@L3.1[/url]
Format settings, CABAC : Yes
Format settings, ReFrames : 1 frame
Codec ID : avc1
Codec ID/Info : Advanced Video Coding
Duration : 1mn 57s
Bit rate mode : Variable
Bit rate : 997 Kbps
Maximum bit rate : 5 941 Kbps
Width : 1 280 pixels
Height : 720 pixels
Display aspect ratio : 16:9
Frame rate mode : Constant
Frame rate : 30.000 fps
Color space : YUV
Chroma subsampling : 4:2:0
Bit depth : 8 bits
Scan type : Progressive
Bits/(Pixel*Frame) : 0.036
Stream size : 14.0 MiB (84%)
Tagged date : UTC 2014-06-16 18:47:35
Audio
ID : 2
Format : AAC
Format/Info : Advanced Audio Codec
Format version : Version 4
Format profile : LC
Format settings, SBR : No
Codec ID : 40
Duration : 1mn 57s
Bit rate mode : Variable
Bit rate : 192 Kbps
Maximum bit rate : 201 Kbps
Channel(s) : 2 channels
Channel positions : Front: L R
Sampling rate : 44.1 KHz
Stream size : 2.69 MiB (16%)
Title : IsoMedia File Produced by Google, 5-11-2011
Encoded date : UTC 2014-06-16 18:47:35
Tagged date : UTC 2014-06-16 18:47:35
Скачать .torrent

Для того, чтобы скачать торрент-файл

Василий Терентьев - EDM: Коммерческое Сведение и Мастеринг (2014)

с нашего сайта, Вам необходимо Войти на сайт под своим логином! Если у Вас ещё нет логина, тогда Вам нужно сначала Зарегистрироваться!

Как скачивать? · Что такое торрент? · Рейтинг и ограничения

Показать сообщения:    
Ответить на тему

Василий Терентьев - EDM: Коммерческое Сведение и Мастеринг (2014) скачать торрент (torrent), видеоуроки, тренинги, обучающее видео и видеокурсы

Текущее время: Сегодня 03:09

Часовой пояс: GMT + 4



Вы не можете начинать темы
Вы не можете отвечать на сообщения
Вы не можете редактировать свои сообщения
Вы не можете удалять свои сообщения
Вы не можете голосовать в опросах
Вы не можете прикреплять файлы к сообщениям
Вы не можете скачивать файлы