TheTunes.Ru - Секреты Мастеринга (2014)

Ответить на тему
 
Автор Сообщение

Yulya ®

-TheTunes.Ru - Секреты Мастеринга (2014)- Автор (режиссер): TheTunes.Ru
Жанр: Звукорежиссура
Язык: Русский
Продолжительность: 01:34:42
Качество видео: PCRec
Видеокодек: AVC/H.264
Битрейт видео: ~1 862 Kbps, 24.000 fps
Размер кадра: 1920x1032, 1.860
Аудиокодек: AAC
Битрейт аудио: 126 Kbps, 2 channels, 44.1 KHz
Описание: В данном обучающем видеокурсе Вы узнаете, что такое мастеринг и каким он бывает. Поймёте, нужен ли Вам мастеринг вообще. Узнаете, как подготовить трек к мастерингу. Научитесь делать грамотный мастеринг. Поймёте, какие плагины Вам нужно использовать. Узнаете, в какой последовательности делать обработку, а также про громкость и ее нюансы.

Содержание:

01. Введение
02. Подготовка трека для мастеринга
03. Анализ трека на предмет ошибок
04. Эквализация при мастеринге
05. Компрессия при мастеринге
06. Эксайтирование при мастеринге
07. Сатурация при мастеринге
08. Громкость
09. Максимизация

MediaInfo:

General
Complete name : H:\Фильмы\TheTunes.Ru - Секреты Мастеринга\01. Введение.mp4
Format : MPEG-4
Format profile : Base Media
Codec ID : isom
File size : 143 MiB
Duration : 10mn 1s
Overall bit rate : 1 993 Kbps
Writing application : Lavf55.12.100
Video
ID : 1
Format : AVC
Format/Info : Advanced Video Codec
Format profile : [url=mailto:High@L4.0]High@L4.0[/url]
Format settings, CABAC : Yes
Format settings, ReFrames : 3 frames
Codec ID : avc1
Codec ID/Info : Advanced Video Coding
Duration : 10mn 1s
Bit rate mode : Variable
Bit rate : 1 862 Kbps
Width : 1 920 pixels
Height : 1 032 pixels
Display aspect ratio : 1.860
Frame rate mode : Constant
Frame rate : 24.000 fps
Color space : YUV
Chroma subsampling : 4:2:0
Bit depth : 8 bits
Scan type : Progressive
Bits/(Pixel*Frame) : 0.039
Stream size : 133 MiB (93%)
Audio
ID : 2
Format : AAC
Format/Info : Advanced Audio Codec
Format version : Version 4
Format profile : LC
Format settings, SBR : No
Codec ID : 40
Duration : 10mn 1s
Bit rate mode : Constant
Bit rate : 126 Kbps
Channel(s) : 2 channels
Channel positions : Front: L R
Sampling rate : 44.1 KHz
Stream size : 9.00 MiB (6%)
Скриншоты:
Скачать .torrent

Для того, чтобы скачать торрент-файл

TheTunes.Ru - Секреты Мастеринга (2014)

с нашего сайта, Вам необходимо Войти на сайт под своим логином! Если у Вас ещё нет логина, тогда Вам нужно сначала Зарегистрироваться!

Как скачивать? · Что такое торрент? · Рейтинг и ограничения

Показать сообщения:    
Ответить на тему

TheTunes.Ru - Секреты Мастеринга (2014) скачать торрент (torrent), видеоуроки, тренинги, обучающее видео и видеокурсы

Текущее время: Сегодня 02:06

Часовой пояс: GMT + 4



Вы не можете начинать темы
Вы не можете отвечать на сообщения
Вы не можете редактировать свои сообщения
Вы не можете удалять свои сообщения
Вы не можете голосовать в опросах
Вы не можете прикреплять файлы к сообщениям
Вы не можете скачивать файлы