ITVDN - Вебинар на тему: "Оптимизация производительности JavaScript приложений" (2014)

Ответить на тему
 
Автор Сообщение

Yulya ®

-ITVDN - Вебинар на тему: "Оптимизация производительности JavaScript приложений" (2014)- Автор (режиссер): ITVDN
Жанр: Видеоурок
Продолжительность: 01:51:32
Сайт производителя: http://itvdn.com/ru
Качество видео: PCRec
Видеокодек: AVC1/H.264
Битрейт видео: ~50 Kbps
Размер кадра: 1280*720
Аудиокодек: AAC
Битрейт аудио: 44,100 Hz, 2 Ch, 16 bits, 1411 Kbps
Описание:
Программа:
Определение проблем производительности. Использование профайлеров, встроенных в браузер.
Общие рекомендации по повышению производительности в JavaScript приложениях.
Особенности использования библиотеки jQuery. Как правильно использовать селекторы?
Шаблоны кодирования. Как правильно манипулировать DOM
Tips & Trick для написания высокопроизводительных приложений.
Ведущий: Дмитрий Охрименко, тренер-консультант по построению распределенных и веб-ориентированных приложений. Сертифицированный специалист Microsoft (MCTS, MCPD, MCT).

MediaInfo

Формат : MPEG-4
Профиль формата : Base Media / Version 2
Идентификатор кодека : mp42
Размер файла : 216 Мбайт
Продолжительность : 1 ч. 51 м.
Режим общего битрейта : Переменный
Общий поток : 271 Кбит/сек
Дата кодирования : UTC 2014-06-26 11:42:51
Дата пометки : UTC 2014-06-26 11:42:51
Видео
Идентификатор : 1
Формат : AVC
Формат/Информация : Advanced Video Codec
Профиль формата : [url=mailto:Main@L3.1]Main@L3.1[/url]
Параметр CABAC формата : Да
Параметр ReFrames формата : 3 кадра
Параметр GOP формата : M=1, N=75
Идентификатор кодека : avc1
Идентификатор кодека/Информация : Advanced Video Coding
Продолжительность : 1 ч. 51 м.
Продолжительность оригинала : 1 ч. 51 м.
Вид битрейта : Переменный
Битрейт : 143 Кбит/сек
Ширина : 1280 пикселей
Высота : 720 пикселей
Соотношение сторон : 16:9
Режим частоты кадров : Переменный
Частота кадров : 15,000 кадров/сек
Минимальная частота кадров : 15,000 кадров/сек
Максимальная частота кадров : 15,008 кадров/сек
Цветовое пространство : YUV
Субдискретизация насыщенности : 4:2:0
Битовая глубина : 8 бит
Тип развёртки : Прогрессивная
Бит/(Пиксели*Кадры) : 0.010
Размер потока : 114 Мбайт (53%)
Размер потока оригинала : 114 Мбайт (53%)
Язык : English
Дата кодирования : UTC 2014-06-26 11:42:51
Дата пометки : UTC 2014-06-26 11:42:51
mdhd_Duration : 6692934
Аудио
Идентификатор : 2
Формат : AAC
Формат/Информация : Advanced Audio Codec
Профиль формата : LC
Идентификатор кодека : 40
Продолжительность : 1 ч. 51 м.
Продолжительность оригинала : 1 ч. 51 м.
Вид битрейта : Переменный
Битрейт : 126 Кбит/сек
Максимальный битрейт : 244 Кбит/сек
Каналы : 2 канала
Расположение каналов : Front: L R
Частота : 44,1 КГц
Метод сжатия : С потерями
Размер потока : 100 Мбайт (46%)
Размер потока оригинала : 100 Мбайт (46%)
Язык : English
Дата кодирования : UTC 2014-06-26 11:42:51
Дата пометки : UTC 2014-06-26 11:42:51
mdhd_Duration : 6692943
Скриншоты:
Скачать .torrent

Для того, чтобы скачать торрент-файл

ITVDN - Вебинар на тему: "Оптимизация производительности JavaScript приложений" (2014)

с нашего сайта, Вам необходимо Войти на сайт под своим логином! Если у Вас ещё нет логина, тогда Вам нужно сначала Зарегистрироваться!

Как скачивать? · Что такое торрент? · Рейтинг и ограничения

Показать сообщения:    
Ответить на тему

ITVDN - Вебинар на тему: "Оптимизация производительности JavaScript приложений" (2014) скачать торрент (torrent), видеоуроки, тренинги, обучающее видео и видеокурсы

Текущее время: Сегодня 23:25

Часовой пояс: GMT + 4



Вы не можете начинать темы
Вы не можете отвечать на сообщения
Вы не можете редактировать свои сообщения
Вы не можете удалять свои сообщения
Вы не можете голосовать в опросах
Вы не можете прикреплять файлы к сообщениям
Вы не можете скачивать файлы