М.Футос - Инструкция по сборке домашнего компьютера от "А" до "Я" в видеоформате (2013)

Ответить на тему
 
Автор Сообщение

Yulya ®

-М.Футос - Инструкция по сборке домашнего компьютера от "А" до "Я" в видеоформате (2013)- Автор (режиссер): М.Футос
Жанр: Обучающие видеуроки
Продолжительность: 00:19:30
Качество видео: DVDRip
Видеокодек: MPEG4 (AVC)
Битрейт видео: ~2 010 Kbps
Размер кадра: 1280х720
Аудиокодек: AAC
Битрейт аудио: 192 Kbps, 2 ch
Описание:
Вы сомневаетесь или же не совсем уверены в правильности, оптимальности сборок в магазинах, Вы постоянно думаете, что Вас могут обмануть? Тогда это видео для Вас. В нем очень досконально и доходчиво показывается и объясняется, как в домашних условиях можно без труда собрать компьютер самостоятельно. Вы вместе с мастером по сборке компьютера шаг за шагом поэтапно от начала и до конца пройдёте весь путь сборки компьтера. И в будущем Вам не придёться платить деньги кому-либо за эту работу.
Вы решили купить компьютер и отправились в магазин. Прогулявшись по магазинам, Вы столкнулись с проблемой - ни один из уже собранных компьютеров не подходит Вашим запросам?. В некоторых процессор не тот, в других не хватает объёма памяти, в третьих видеокарта не того производителя. Что же вам делать в таком случае?
Можно купить все комплектующие по отдельности и собрать все самому. Но Вы никогда этого не делали, и большое количество проводов вводят Вас в ступор?
Не стоит бояться. На самом деле все гораздо проще, чем Вам кажется. Это видео поможет Вам разобраться в тонкостях внутреннего устройства компьютера, а также собрать компьютер Вашей мечты, даже если Вы никогда раньше этим не занимались. Уверен, что после просмотра данной видео инструкции, Вы сможете собрать себе именно такой ПК, и с нужными Вам комплектующими (конфигурацией), который больще всего подходит под Ваши запросы.

MediaInfo:

General
Format : MPEG-4
Format profile : Base Media / Version 2
Codec ID : mp42
File size : 306 MiB
Duration : 19mn 24s
Overall bit rate : 2 206 Kbps
Video
ID : 1
Format : AVC
Format/Info : Advanced Video Codec
Format profile : [url=mailto:High@L3.1]High@L3.1[/url]
Format settings, CABAC : Yes
Format settings, ReFrames : 1 frame
Codec ID : avc1
Codec ID/Info : Advanced Video Coding
Duration : 19mn 24s
Bit rate mode : Variable
Bit rate : 2 010 Kbps
Width : 1 280 pixels
Height : 720 pixels
Display aspect ratio : 16:9
Frame rate mode : Variable
Frame rate : 25.000 fps
Minimum frame rate : 25.000 fps
Maximum frame rate : 25.007 fps
Color space : YUV
Chroma subsampling : 4:2:0
Bit depth : 8 bits
Scan type : Progressive
Bits/(Pixel*Frame) : 0.087
Stream size : 279 MiB (91%)
Language : English
Color primaries : BT.709-5, BT.1361, IEC 61966-2-4, SMPTE RP177
Transfer characteristics : BT.709-5, BT.1361
Matrix coefficients : BT.709-5, BT.1361, IEC 61966-2-4 709, SMPTE RP177
Audio
ID : 2
Format : AAC
Format/Info : Advanced Audio Codec
Format profile : LC
Codec ID : 40
Duration : 19mn 24s
Bit rate mode : Variable
Bit rate : 192 Kbps
Channel(s) : 2 channels
Channel positions : Front: L R
Sampling rate : 44.1 KHz
Compression mode : Lossy
Stream size : 26.7 MiB (9%)
Language : English
Скачать .torrent

Для того, чтобы скачать торрент-файл

М.Футос - Инструкция по сборке домашнего компьютера от "А" до "Я" в видеоформате (2013)

с нашего сайта, Вам необходимо Войти на сайт под своим логином! Если у Вас ещё нет логина, тогда Вам нужно сначала Зарегистрироваться!

Как скачивать? · Что такое торрент? · Рейтинг и ограничения

Показать сообщения:    
Ответить на тему

М.Футос - Инструкция по сборке домашнего компьютера от "А" до "Я" в видеоформате (2013) скачать торрент (torrent), видеоуроки, тренинги, обучающее видео и видеокурсы

Текущее время: Сегодня 01:56

Часовой пояс: GMT + 4



Вы не можете начинать темы
Вы не можете отвечать на сообщения
Вы не можете редактировать свои сообщения
Вы не можете удалять свои сообщения
Вы не можете голосовать в опросах
Вы не можете прикреплять файлы к сообщениям
Вы не можете скачивать файлы