Андрей Журавлев - Photoshop - Actions. Автоматизация работы (2013)

Ответить на тему
 
Автор Сообщение

Yulya ®

-Андрей Журавлев - Photoshop - Actions. Автоматизация работы (2013)- Автор (режиссер): Андрей Журавлев
Жанр: Photoshop
Продолжительность: 03:17:24
Качество видео: PCRec
Видеокодек: MPEG4 Video
Битрейт видео: ~25fps 294kbps
Размер кадра: 1232x768
Аудиокодек: AAC
Битрейт аудио: 44100Hz stereo 151kbps
Доп. материалы: Имеются
Описание:
"Сценарии обработки (Actions) — это простая запись совершенных пользователем операций. Получив команду, Photoshop может самостоятельно применить те же самые операции к любому другому изображению. Или даже нескольким, если запустить пакетную обработку. В теории все хорошо, но на практике нередко начинаются проблемы. Action созданный в английской версии программы отказывается корректно работать на русской (и наоборот). Сработав на одном файле, спотыкается на другом. Серьезно улучшив одни изображения, приводит к весьма посредственным результатам на других. О том, как решить эти проблемы мы и поговорим.
А еще рассмотрим, как при пакетной обработке эффективно совместить работу экшена и человека в тех случаях, когда требуется индивидуальный подбор настроек для каждого файла."
Андрей Журавлев

Дополнительная информация:

Программа Мастер-класса
Что такое Action?
Запись и воспроизведение одиночного сценария.
Пакетная обработка.
Обеспечение совместимости для русской и английской версий программы.
Как сделать сценарий независимым от структуры слоев.
Внесение в сценарий пользовательских настроек.
Реализация в сценарии идеи неразрушающей обработки.
Создание и отладка сложных экшенов.

MI

Общее
Полное имя : D:\Андрей\Photoshop Actions. Автоматизация работы\Видео.mp4
Формат : MPEG-4
Профиль формата : Base Media
Идентификатор кодека : isom
Размер файла : 636 Мбайт
Продолжительность : 3 ч. 17 м.
Режим общего битрейта : Переменный
Общий поток : 450 Кбит/сек
Программа кодирования : AVM.EXE
Видео
Идентификатор : 1
Формат : MPEG-4 Visual
Профиль формата : Simple@L1
Параметр BVOP формата : Нет
Параметр QPel формата : Нет
Параметр GMC формата : Без точки перехода
Параметр матрицы формата : Default (H.263)
Идентификатор кодека : 20
Продолжительность : 3 ч. 17 м.
Битрейт : 295 Кбит/сек
Ширина : 1232 пикселя
Высота : 768 пикселей
Соотношение сторон : 1,604
Режим частоты кадров : Постоянный
Частота кадров : 25,000 кадров/сек
Цветовое пространство : YUV
Субдискретизация насыщенности : 4:2:0
Битовая глубина : 8 бит
Тип развёртки : Прогрессивная
Метод сжатия : С потерями
Бит/(Пиксели*Кадры) : 0.012
Размер потока : 416 Мбайт (65%)
Библиотека кодирования : Lavc52.72.2
Аудио
Идентификатор : 2
Формат : AAC
Формат/Информация : Advanced Audio Codec
Профиль формата : LC
Идентификатор кодека : 40
Продолжительность : 3 ч. 17 м.
Вид битрейта : Переменный
Битрейт : 151 Кбит/сек
Каналы : 2 канала
Расположение каналов : Front: L R
Частота : 44,1 КГц
Метод сжатия : С потерями
Размер потока : 213 Мбайт (34%)
Скриншоты:
Скачать .torrent

Для того, чтобы скачать торрент-файл

Андрей Журавлев - Photoshop - Actions. Автоматизация работы (2013)

с нашего сайта, Вам необходимо Войти на сайт под своим логином! Если у Вас ещё нет логина, тогда Вам нужно сначала Зарегистрироваться!

Как скачивать? · Что такое торрент? · Рейтинг и ограничения

Показать сообщения:    
Ответить на тему

Андрей Журавлев - Photoshop - Actions. Автоматизация работы (2013) скачать торрент (torrent), видеоуроки, тренинги, обучающее видео и видеокурсы

Текущее время: Сегодня 02:56

Часовой пояс: GMT + 4



Вы не можете начинать темы
Вы не можете отвечать на сообщения
Вы не можете редактировать свои сообщения
Вы не можете удалять свои сообщения
Вы не можете голосовать в опросах
Вы не можете прикреплять файлы к сообщениям
Вы не можете скачивать файлы