Lynda.com - Photoshop CS6 - Базовый курс (2012)

Ответить на тему
 
Автор Сообщение

Yulya ®

-Lynda.com - Photoshop CS6 - Базовый курс (2012)- Автор (режиссер): Lynda.com
Жанр: Photoshop
Продолжительность: 10:30:17
Язык: Русский перевод
Качество видео: PCRec
Видеокодек: AVC
Битрейт видео: ~15fps 294 Kbps
Размер кадра: 960x540
Аудиокодек: MP3
Битрейт аудио: 44100Hz mono 96.0 Kbps
Доп. материалы: Имеются
Описание:
В курсе Photoshop CS6 EssentialTraining, Джулианна Кост демонстрирует методы создания в короткие сроки высококачественных изображений, при помощи комбинации программ Adobe Photoshop CS6, Bridge и Camera Raw.
Курс охватывает особенности и творческие возможности Photoshop, и раскрывает эффективные способы для выполнения общих задач по редактированию, в том числе снижение шумов, восстановление детализации тени и световых бликов, ретуширование и комбинирование нескольких изображений. Попутно, курс рассматривает методы не деструктивного редактирования и компоновки с использованием слоёв, режимов смешивания, масок и многого другого.​

Дополнительная информация:

Темы:
Организацию изображений в Bridge
Добавление метаданных, таких как авторские права и ключевые слова
Редактирование в CameraRaw, по сравнению с в Photoshop
Ретуширование в CameraRaw
Пакетную обработку файлов
Настройку рабочих областей Photoshop
Выбор формата файла и его разрешения
Кадрирование, масштабирование и вращение изображений
Работу со слоями, в том числе слияние и выравнивание слоёв
Создание выделений и масок
Изменение тона и цвета изображений
Регулировку теней и световых бликов
Ретуширование и клонирование
Создание панорам из нескольких изображений
Добавление фильтров и резкости
Работу с режимами смешивания
Добовление Типографики
Работу с видео в PhotoshopCS6

MI

Общее
Уникальный идентификатор : 228066098873878577069852205819451959147 (0xAB93EED3537241AEAC33EB463288676B)
Полное имя : D:\Андрей\Photoshop_CS6._Bazovyy_kurs\01. It Begins in Bridge\01 01. What is Adobe Bridge.mkv
Формат : Matroska
Версия формата : Version 2
Размер файла : 8,04 Мбайт
Продолжительность : 2 м. 49 с.
Общий поток : 398 Кбит/сек
Дата кодирования : UTC 2013-06-15 19:32:06
Программа кодирования : mkvmerge v5.6.0 ('Kenya Kane') built on May 27 2012 16:44:04
Библиотека кодирования : libebml v1.2.3 + libmatroska v1.3.0
Видео
Идентификатор : 1
Формат : AVC
Формат/Информация : Advanced Video Codec
Профиль формата : [url=mailto:Main@L3.1]Main@L3.1[/url]
Параметр CABAC формата : Да
Параметр ReFrames формата : 3 кадра
Параметр GOP формата : M=3, N=30
Режим смешивания : Header stripping
Идентификатор кодека : V_MPEG4/ISO/AVC
Продолжительность : 2 м. 49 с.
Битрейт : 294 Кбит/сек
Ширина : 960 пикселей
Высота : 540 пикселей
Соотношение сторон : 16:9
Режим частоты кадров : Постоянный
Частота кадров : 15,000 кадров/сек
Цветовое пространство : YUV
Субдискретизация насыщенности : 4:2:0
Битовая глубина : 8 бит
Тип развёртки : Прогрессивная
Бит/(Пиксели*Кадры) : 0.038
Размер потока : 5,94 Мбайт (74%)
Default : Да
Forced : Нет
Аудио
Идентификатор : 2
Формат : MPEG Audio
Версия формата : Version 1
Профиль формата : Layer 3
Режим смешивания : Header stripping
Идентификатор кодека : A_MPEG/L3
Идентификатор кодека/Подсказка : MP3
Продолжительность : 2 м. 49 с.
Вид битрейта : Постоянный
Битрейт : 96,0 Кбит/сек
Каналы : 1 канал
Частота : 44,1 КГц
Метод сжатия : С потерями
Размер потока : 1,94 Мбайт (24%)
Default : Да
Forced : Нет
Скриншоты:
Скачать .torrent

Для того, чтобы скачать торрент-файл

Lynda.com - Photoshop CS6 - Базовый курс (2012)

с нашего сайта, Вам необходимо Войти на сайт под своим логином! Если у Вас ещё нет логина, тогда Вам нужно сначала Зарегистрироваться!

Как скачивать? · Что такое торрент? · Рейтинг и ограничения

Показать сообщения:    
Ответить на тему

Lynda.com - Photoshop CS6 - Базовый курс (2012) скачать торрент (torrent), видеоуроки, тренинги, обучающее видео и видеокурсы

Текущее время: Сегодня 03:54

Часовой пояс: GMT + 4



Вы не можете начинать темы
Вы не можете отвечать на сообщения
Вы не можете редактировать свои сообщения
Вы не можете удалять свои сообщения
Вы не можете голосовать в опросах
Вы не можете прикреплять файлы к сообщениям
Вы не можете скачивать файлы