А. Севостьянов - Создание и настройка сети между Windows XP, 7 и 8 / Создание и администрирование одноранговой сети (2012-2013)

Ответить на тему
 
Автор Сообщение

Yulya ®

-А. Севостьянов - Создание и настройка сети между Windows XP, 7 и 8 / Создание и администрирование одноранговой сети (2012-2013)- Автор (режиссер): А. Севостьянов
Жанр: Обучающие видеуроки
Продолжительность: 05:41:40
Качество видео: PCRec
Видеокодек: MPEG4 (AVC)
Битрейт видео: ~508 Kbps
Размер кадра: 1280х768
Аудиокодек: AAC
Битрейт аудио: 132 Kbps, 2 ch
Описание:
Как самостоятельно создать и настроить локальную сеть независимо от того, какая у вас операционная система Windows? Подробный и развернутый ответ на этот вопрос дается внутри этого обучающего видеокурса. На примере 3-х различных версий Windows: XP, 7 и 8 Вы своими глазами увидите, как производится настройка локальной сети, причем вам вовсе не обязательно переустанавливать разные версии Windows. Обучение будет проходить с использованием виртуальной среды аналогичной с физической.
Пошаговое изучение видеоуроков, позволят Вам без труда научиться создавать и настраивать ллокальную сеть как между компьютерами с одной ОС, так и между компьютерами с разными версиями ОС Windows. Создание и настройки локальной сети в Windows 7 наиболее актуален, т.к. процесс создания сети между компьютерами в Windows 7 и XP отличается.
Данные знания помогут при создании домашней сети, или сети для небольшой организациии изучив данный видеокурс, вы сможете не только создать домашнюю сеть, но и устроиться на подработку в небольшую организацию и начать получать дополнительный доход от своего увлечения компьютерами!

Содержание видеокурса:

01 Создание локальной сети
02 Создание и настройка локальной сети в Windows 7
03 Создание и настройка сети в Windows 8
04 Создание виртуальных машин
05 Предварительная настройка систем
06 Подключение к рабочей группе Windows ХР
07 Подключение к рабочей группе Windows 7
08 Доступ без парольной защиты
09 Доступ с парольной защитой
10 Возможные проблемы
11 Обеспечение безопасносги
12. Настройка Интернет для локальной и виртуальной сети
13. Переименование администратора на всех компьютерах
14. Дистанционного управления компьютером в домене (ХР)
15. Настройка Usergate - учет интернет трафика в локальной сети
16. OSI -Уровни сетевой модели (часть 1)
17. OSI- Взаимодействие уровней сетевой модели (часть 2)
18. Bglnfo - IP адрес на рабочем сголе
19. Bglnfo - настройка для сети с доменом
20. Radmin - Установка и настройка через групповую политику
21. Radmin - Меняем логин и пароль групповой политикой

Видеокурс: Создание и администрирование одноранговой сети

Хотите познакомиться с основами построения и настройки локальной сети? Разобраться в таком вопросе самостоятельно будет очень сложно, но если вы воспользуетесь этим видеокурсом, то автор подробно познакомит вас с этой темой и научит работать с локальной сетью. Вас ждет 9 обучающих видеоуроков продолжительностью в почти 2 часа, которые отлично подойдут тем, кому необходимы подобные знания для настройки домашней сети, а также людям, мечтающим о карьере системного администратора.
Содержание видеокурса:
01. Введение
02. Построение сети на основе неэкранированной витой napы
03. Создание виртуальных рабочих станций
04. Подключаем компьютеры к рабочей rpynne
05. Настраиваем безопасность
06. Администрирование рабочей rpynnы
07. Система общения между пользователями в ceти
08. Подключаем рабочую группу к Интернет
09. Что дальше?'

MediaInfo:

General
Complete name : Создание локальной сети между W-XP W-7 и W-8\01 Создание локальной сети.mp4
Format : MPEG-4
Format profile : Base Media
Codec ID : isom
File size : 14.2 MiB
Duration : 3mn 5s
Overall bit rate : 643 Kbps
Movie name : 02 Создание локальной сети
Writing application : Lavf55.1.100
Video
ID : 1
Format : AVC
Format/Info : Advanced Video Codec
Format profile : [url=mailto:High@L3.2]High@L3.2[/url]
Format settings, CABAC : Yes
Format settings, ReFrames : 4 frames
Codec ID : avc1
Codec ID/Info : Advanced Video Coding
Duration : 3mn 5s
Bit rate mode : Variable
Bit rate : 508 Kbps
Width : 1 280 pixels
Height : 768 pixels
Display aspect ratio : 1.667
Frame rate mode : Constant
Frame rate : 15.000 fps
Color space : YUV
Chroma subsampling : 4:2:0
Bit depth : 8 bits
Scan type : Progressive
Bits/(Pixel*Frame) : 0.034
Stream size : 11.2 MiB (79%)
Writing library : x264 core 130 r2274 c832fe9
Encoding settings : cabac=1 / ref=3 / deblock=1:0:0 / analyse=0x3:0x113 / me=hex / subme=7 / psy=1 / psy_rd=1.00:0.00 / mixed_ref=1 / me_range=16 / chroma_me=1 / trellis=1 / 8x8dct=1 / cqm=0 / deadzone=21,11 / fast_pskip=1 / chroma_qp_offset=-2 / threads=3 / lookahead_threads=1 / sliced_threads=0 / nr=0 / decimate=1 / interlaced=0 / bluray_compat=0 / constrained_intra=0 / bframes=3 / b_pyramid=2 / b_adapt=1 / b_bias=0 / direct=1 / weightb=1 / open_gop=0 / weightp=2 / keyint=250 / keyint_min=15 / scenecut=40 / intra_refresh=0 / rc_lookahead=40 / rc=crf / mbtree=1 / crf=2.0 / qcomp=0.60 / qpmin=0 / qpmax=69 / qpstep=4 / ip_ratio=1.40 / aq=1:1.00
Language : English
Audio
ID : 2
Format : AAC
Format/Info : Advanced Audio Codec
Format profile : LC
Codec ID : 40
Duration : 3mn 5s
Bit rate mode : Variable
Bit rate : 132.3 Kbps
Maximum bit rate : 144 Kbps
Channel(s) : 2 channels
Channel positions : Front: L R
Sampling rate : 44.1 KHz
Compression mode : Lossy
Stream size : 2.91 MiB (20%)
Language : English
Показать сообщения:    
Ответить на тему

А. Севостьянов - Создание и настройка сети между Windows XP, 7 и 8 / Создание и администрирование одноранговой сети (2012-2013) скачать торрент (torrent), видеоуроки, тренинги, обучающее видео и видеокурсы

Текущее время: Сегодня 13:05

Часовой пояс: GMT + 4



Вы не можете начинать темы
Вы не можете отвечать на сообщения
Вы не можете редактировать свои сообщения
Вы не можете удалять свои сообщения
Вы не можете голосовать в опросах
Вы не можете прикреплять файлы к сообщениям
Вы не можете скачивать файлы