Кухар Богдан - 1С 8.3 Старт (2014)

Ответить на тему
 
Автор Сообщение

Yulya ®

-Кухар Богдан - 1С 8.3 Старт (2014)- Автор (режиссер): Кухар Богдан
Жанр: Курсы 1С программирования
Продолжительность: 18 часов
Качество видео: PCRec
Видеокодек: MP4
Битрейт видео: ~580 кб/s 25 FPS
Размер кадра: 1280 x 1024
Аудиокодек: AAC
Битрейт аудио: 53 кb/s 2ch 44HZ
Описание:
«1С 8.3 Старт» полная версия курса позволит Вам выжать максимум из самостоятельного обучения.
Здесь Мы построим систему учета для небольшой фирмы (Сквозной пошаговый пример) будем строить типовые отчеты, и многое другое, что реально используют программисты на практике, одним словом все, что нужно для начинающего программиста 1С !

Дополнительная информация:

Программа видеокурса
Урок 1
1. Что такое платформа 1С (общие сведения)
2. Дерево объектов конфигурации.
3. Объект "Подсистема".
4. Объект "Справочник".
5. Объект "Документ".
6. Объект "Отчет".
7. Объект "Обработки".
Урок 2
1. Объект "Регистр накопления".
2. Объект "Регистр сведений".
3. Объект "ПланВидовХарактеристик"
4. Способы переноса, копирования ИБ и конфигурации.
Урок 3
1.Встроенный язык системы.
2.Управляемые формы - знакомство.
3.Первые строчки кода.
4.Процедуры и функции.
5.Работа с датами.
6.Условные операторы (Оператор "Если")
Урок 4
1. Условные операторы ("Иначе")
2.Условные операторы ("ИначеЕсли")
3.Циклы в 1С 8.3
Урок 5
1.Массивы в 1С 8.3
2.Директивы компиляции (Общие сведения)
3.Пример использования: Выборка + Массив + Цикл + Функция.
Урок 6
1.Таблица значений в 1С 8.3
2.Работа с управляемой формой (Часть 1 «Поля» и «Переключатели»)
Урок 7
1.Работа с управляемой формой (Часть 2)
2 Работа со справочником, программно создание, редактирование, удаление элементов.
3.Работа с табличным полем.
4.Таблица значений и табличное поле.
Урок 8
1.Итоги на управляемой форме.
2.Элементы на управляемой форме.
3.Объект "Структура"
4.Передача значений параметров между формами.
5.Форматированная строка.
Урок 9
1. Проверка не заполненных строк.
2. Функции для работы со строками.
3. "Список значений" в 1С 8.3.
Урок 10
1. Работа с формами (Выпадающие списки).
2. Работа с формами (Реализация закладок).
3. Программное создание "кнопки" на форме.
4."Дерево значений" на управляемой форме.
Урок 11
1.Реализация импорта из текстового файла.
2.Программное создание документа и другое.
Урок 12
1.Запросы в 1С.
Урок 13
1.Работа с запросами (Часть 2)
2.Вывод документа на печать.
Урок 14
Строим отчет на "СКД"
Урок 15
----Сквозной пример (Часть 1)----
1.Создание новой конфигурации.
3.Создание "Подсистем".
4.Создание "Справочников"
5.Создание "Документов"
6.Создание "ОбщегоМодуля"
7.Понятие экспортной процедуры и функции
Урок 16
----Сквозной пример (Часть 2)----
1. Общий модуль. пересчет суммы в таб. части.
2. Итоги в документах.
3. Создание "Регистра Накопления"
4. Обработка проведения, формируем "движения"
5. Отчет по остаткам товаров и материалов на складах.
6. Документ "Перемещение" между складами.
Урок 17
----Сквозной пример (Часть 3)----
1. Движения стоимость товаров и материалов.
2. Регистр "Сведений" "ЦеныТМЦ"
Урок 18
----Сквозной пример (Часть 4)----
1. Расчет "Чистой прибыли".
2. Авто заполнение цен из регистра в таб. часть документа.
3. Создаем "Перечисление"
4. Строим отчет на СКД "Рейтинг товаров".
5. Создаем диаграммы в отчетах.
6. "Круговая объемная" диаграмма.
7. "Измерительная" диаграмма
Урок 19
----Сквозной пример (Часть 5)----
1. Создаем отчет "Рейтинг продаж".
2. Создаем отчет по продажам на "СКД"
3. Оформление отчета по продажам.
4. Выводим вместе с отчетом диаграммы и графики
Урок 20
----Сквозной пример (Часть 6)----
1. Основы ведения бухгалтерского учета в 1С.
2. Новый объект "Планы Счетов"
3. Новый объект "Регистры бухгалтерии".
4. Движения по регистрам бухгалтерии.
5. Строим отчет "Оборотно-сальдовая ведомость"

Media Info

Общее
Полное имя : F:\Торренты\1c 83\AutoPlay\Videos\UROK1.mp4
Формат : MPEG-4
Профиль формата : Base Media / Version 2
Идентификатор кодека : mp42
Размер файла : 318 Мбайт
Продолжительность : 1 ч. 9 м.
Общий поток : 636 Кбит/сек
Дата кодирования : UTC 2014-03-12 13:23:14
Дата пометки : UTC 2014-03-12 13:23:14
Видео
Идентификатор : 1
Формат : AVC
Формат/Информация : Advanced Video Codec
Профиль формата : [url=mailto:High@L3.2]High@L3.2[/url]
Параметр CABAC формата : Да
Параметр ReFrames формата : 4 кадра
Параметр GOP формата : M=1, N=125
Идентификатор кодека : avc1
Идентификатор кодека/Информация : Advanced Video Coding
Продолжительность : 1 ч. 9 м.
Продолжительность оригинала : 1 ч. 9 м.
Битрейт : 580 Кбит/сек
Ширина : 1280 пикселей
Высота : 1024 пикселя
Соотношение сторон : 5:4
Режим частоты кадров : Постоянный
Частота кадров : 25,000 кадров/сек
Стандарт вещания : PAL
Цветовое пространство : YUV
Субдискретизация насыщенности : 4:2:0
Битовая глубина : 8 бит
Тип развёртки : Прогрессивная
Бит/(Пиксели*Кадры) : 0.018
Размер потока : 290 Мбайт (91%)
Размер потока оригинала : 290 Мбайт (91%)
Язык : English
Дата кодирования : UTC 2014-03-12 13:23:14
Дата пометки : UTC 2014-03-12 13:23:14
Основные цвета : BT.709
Характеристики трансфера : BT.709
Коэффициенты матрицы : BT.709
mdhd_Duration : 4193727
Аудио
Идентификатор : 2
Формат : AAC
Формат/Информация : Advanced Audio Codec
Профиль формата : LC
Идентификатор кодека : 40
Продолжительность : 1 ч. 9 м.
Продолжительность оригинала : 1 ч. 9 м.
Вид битрейта : Постоянный
Битрейт : 53,5 Кбит/сек
Каналы : 2 канала
Расположение каналов : Front: L R
Частота : 44,1 КГц
Метод сжатия : С потерями
Размер потока : 26,7 Мбайт (8%)
Размер потока оригинала : 26,7 Мбайт (8%)
Язык : English
Дата кодирования : UTC 2014-03-12 13:23:14
Дата пометки : UTC 2014-03-12 13:23:14
mdhd_Duration : 4187696
Скриншоты:
Скачать .torrent

Для того, чтобы скачать торрент-файл

Кухар Богдан - 1С 8.3 Старт (2014)

с нашего сайта, Вам необходимо Войти на сайт под своим логином! Если у Вас ещё нет логина, тогда Вам нужно сначала Зарегистрироваться!

Как скачивать? · Что такое торрент? · Рейтинг и ограничения

Показать сообщения:    
Ответить на тему

Кухар Богдан - 1С 8.3 Старт (2014) скачать торрент (torrent), видеоуроки, тренинги, обучающее видео и видеокурсы

Текущее время: Сегодня 04:35

Часовой пояс: GMT + 4



Вы не можете начинать темы
Вы не можете отвечать на сообщения
Вы не можете редактировать свои сообщения
Вы не можете удалять свои сообщения
Вы не можете голосовать в опросах
Вы не можете прикреплять файлы к сообщениям
Вы не можете скачивать файлы