Тим Ворон - Alpha Magic Presenter (2014)

Ответить на тему
 
Автор Сообщение

Yulya ®

-Тим Ворон - Alpha Magic Presenter (2014)- Автор (режиссер): Тим Ворон
Жанр: Обучающие видеуроки
Продолжительность: 05:02:00
Качество видео: PCRec
Видеокодек: MPEG4
Битрейт видео: ~2 323 Kbps
Размер кадра: 1280х720
Аудиокодек: AAC
Битрейт аудио: 169 Kbps, 2 ch
Описание:
Уникальность новой революционной технологии заключается в том, что теперь для того, чтобы создавать магические продающие 3D-презентации - НЕ НУЖНО вообще уметь программировать и осваивать тяжеловесные программы!
Пройдя данный видеокурс, Вы научитесь легко и быстро создавать свои магические продающие 3D-видеопрезентации
даже, если Вы, совсем начинающий! Что все это вам дает? Во-первых, каждый из Вас получит доступ к свободному редактированию сценария моей топовой магической 3D-видеопрезентации!
Вы получите в подарок не только готовый шаблон, но все исходники данной презентации, сценарии, текст и графику и можете использовать по своему усмотрению и продавать уже завтра!
С такой магической 3D-видеопрезентации нового поколения теперь просто невозможно уйти, потому что она динамична, интересена и буквально не отпускает внимания Вашего посетителя ни на секунду. Вызывая положительные эмоции и вдобавок продает.

MediaInfo:

General
Format : MPEG-4
Format profile : Base Media / Version 2
Codec ID : mp42
File size : 64.2 MiB
Duration : 3mn 35s
Overall bit rate : 2 493 Kbps
Encoded date : UTC 2014-05-22 02:28:55
Tagged date : UTC 2014-05-22 02:32:01
Video
ID : 1
Format : MPEG-4 Visual
Format profile : Advanced Simple@L4
Format settings, BVOP : No
Format settings, QPel : No
Format settings, GMC : No warppoints
Format settings, Matrix : Default (H.263)
Codec ID : 20
Duration : 3mn 35s
Bit rate mode : Constant
Bit rate : 2 323 Kbps
Width : 1 280 pixels
Height : 720 pixels
Display aspect ratio : 16:9
Frame rate mode : Variable
Frame rate : 15.000 fps
Minimum frame rate : 15.000 fps
Maximum frame rate : 15.003 fps
Color space : YUV
Chroma subsampling : 4:2:0
Bit depth : 8 bits
Scan type : Progressive
Compression mode : Lossy
Bits/(Pixel*Frame) : 0.168
Stream size : 59.8 MiB (93%)
Language : English
Encoded date : UTC 2014-05-22 02:28:55
Tagged date : UTC 2014-05-22 02:32:00
Audio
ID : 2
Format : AAC
Format/Info : Advanced Audio Codec
Format profile : LC
Codec ID : 40
Duration : 3mn 35s
Bit rate mode : Constant
Bit rate : 169 Kbps
Channel(s) : 2 channels
Channel positions : Front: L R
Sampling rate : 44.1 KHz
Compression mode : Lossy
Stream size : 4.34 MiB (7%)
Language : English
Encoded date : UTC 2014-05-22 02:28:55
Tagged date : UTC 2014-05-22 02:32:01
Скачать .torrent

Для того, чтобы скачать торрент-файл

Тим Ворон - Alpha Magic Presenter (2014)

с нашего сайта, Вам необходимо Войти на сайт под своим логином! Если у Вас ещё нет логина, тогда Вам нужно сначала Зарегистрироваться!

Как скачивать? · Что такое торрент? · Рейтинг и ограничения

Показать сообщения:    
Ответить на тему

Тим Ворон - Alpha Magic Presenter (2014) скачать торрент (torrent), видеоуроки, тренинги, обучающее видео и видеокурсы

Текущее время: Сегодня 13:39

Часовой пояс: GMT + 4



Вы не можете начинать темы
Вы не можете отвечать на сообщения
Вы не можете редактировать свои сообщения
Вы не можете удалять свои сообщения
Вы не можете голосовать в опросах
Вы не можете прикреплять файлы к сообщениям
Вы не можете скачивать файлы