Последнее из V.I.P.-раздела

10-Авг
10-Авг
10-Авг
10-Авг
10-Авг
10-Авг
10-Авг
10-Авг
10-Авг
10-Авг
10-Авг
10-Авг
10-Авг
10-Авг
10-Авг
10-Авг
10-Авг
09-Авг
09-Авг
09-Авг

Новости о коронавирусе

Алина Мара - Стратегии покупки ссылок (2013)

Ответить на тему
 
Автор Сообщение

Yulya ®

-Алина Мара - Стратегии покупки ссылок (2013)- Автор (режиссер): Алина Мара
Жанр: Вебинар
Продолжительность: 06:43:15
Качество видео: PCRec
Видеокодек: WMV3
Битрейт видео: ~15fps 155kbps
Размер кадра: 1280x720
Аудиокодек: WMA
Битрейт аудио: 44100Hz mono 48kbps
Описание:
Какие ссылки закупать, чтобы выйти в ТОП и не попасть под фильтр. Покупая ссылки, можно быстро выйти в ТОП или надолго попасть под фильтр. Научитесь управлять качеством ссылок для максимально безопасного продвижения сайта. После полного освоения Теоретического блока и Мастер-класса вы сможете полностью откорректировать ссылочную массу вашего сайта, согласно всех последних требований.

Содержание:

Программа семинара (теоретического блока)
Какие ссылки считаются качественными. Параметры определения качества
Правильные внутренние ссылки
Можно ли использовать nofollow внутри сайта
Как закрывать лишние ссылки
Редиректы внутри сайта
Как работают ссылки со страниц с метатегом robots noindex follow
Сквозняки
Правильные внешние ссылки
Нет архивным ссылкам. Ссылка на новой странице, исключения из правила
Скрытые и закрытые ссылки
Где должна быть ссылка на странице
«Человечный» анкор. Тонкости составления
Ссылки-картинки
Тематичность (донора, страницы донора, околоссылочного текста и соседних ссылок
Донор скорее жив чем мертв. Даты публикаций, посещаемость и т. п.)
Какие ссылки стоят на страницу донора, если стоят
12 факторов, которые могут “убить” качество ссылочной массы. Как отличить ГС
Сгенерированный или неуникальный контент
Обилие рекламы
Активная продажа ссылок
Подвал
Нет трафика из поиска
Регион донора
Сгенерированный текст ссылки
Слишком короткий текст ссылки
Околоссылочный текст
Сетка
PR
Однообразие
Первое, второе, третье качество вечных и арендных ссылок. Параметры определения
Уровень вложенности страницы донора
Пузомерки
Позиции в органике
Возраст
Title донора
Текст донора
Программа мастер-класса
Разбираем ссылочную массу, по типам
Анкорная
Безанкорная
Брендовая
Неактивная
Определяем процент каждого вида
Вы получите рекомендации по исправлению анкор-листа относительно оптимального соотношения разных видов ссылок в ссылочной массе.
Составляем скелет анкор-листа по шаблону
Потратив дополнительно еще пару часов, вы его полностью оформите анкор-лист для своего сайта.
Разберемся чем фильтровать доноров
Будем работать программами и сервисами:
Webmaster Sape
Rds Rar
SEOquake
Определим максимальную скорость закупки ссылок для разных видов сайтов
Составим график закупки относительно возраста вашего сайта

MI

Общее
Полное имя : D:\Андрей\strateg.pokup.ssilok\Мастеркласс Стратегии покупки ссылок.wmv
Формат : Windows Media
Размер файла : 341 Мбайт
Продолжительность : 3 ч. 38 м.
Режим общего битрейта : Переменный
Общий поток : 218 Кбит/сек
Максимальный общий битрейт : 2901 Кбит/сек
Название фильма : masterklass
Дата кодирования : UTC 2013-10-17 20:23:09.379
Видео
Идентификатор : 2
Формат : VC-1
Профиль формата : MP@HL
Идентификатор кодека : WMV3
Идентификатор кодека/Информация : Windows Media Video 9
Идентификатор кодека/Подсказка : WMV3
Описание кодека : Windows Media Video 9
Продолжительность : 3 ч. 38 м.
Вид битрейта : Переменный
Битрейт : 156 Кбит/сек
Ширина : 1280 пикселей
Высота : 720 пикселей
Соотношение сторон : 16:9
Частота кадров : 15,000 кадров/сек
Битовая глубина : 8 бит
Тип развёртки : Прогрессивная
Метод сжатия : С потерями
Бит/(Пиксели*Кадры) : 0.011
Размер потока : 244 Мбайт (71%)
Язык : English (US)
Аудио
Идентификатор : 1
Формат : WMA
Версия формата : Version 2
Идентификатор кодека : 161
Идентификатор кодека/Информация : Windows Media Audio
Описание кодека : Windows Media Audio 9.2 - 48 kbps, 44 kHz, mono (A/V) 1-pass CBR
Продолжительность : 3 ч. 38 м.
Вид битрейта : Постоянный
Битрейт : 48,0 Кбит/сек
Каналы : 1 канал
Частота : 44,1 КГц
Битовая глубина : 16 бит
Размер потока : 75,1 Мбайт (22%)
Язык : English (US)
Скриншоты:
Скачать .torrent

Для того, чтобы скачать торрент-файл

Алина Мара - Стратегии покупки ссылок (2013)

с нашего сайта, Вам необходимо Войти на сайт под своим логином! Если у Вас ещё нет логина, тогда Вам нужно сначала Зарегистрироваться!

Как скачивать? · Что такое торрент? · Рейтинг и ограничения

Показать сообщения:    
Ответить на тему

Алина Мара - Стратегии покупки ссылок (2013) скачать торрент (torrent), видеоуроки, тренинги, обучающее видео и видеокурсы

Текущее время: Сегодня 01:07

Часовой пояс: GMT + 4



Вы не можете начинать темы
Вы не можете отвечать на сообщения
Вы не можете редактировать свои сообщения
Вы не можете удалять свои сообщения
Вы не можете голосовать в опросах
Вы не можете прикреплять файлы к сообщениям
Вы не можете скачивать файлы