Реймонд Хеттинджер - Инструментарий для работы с классами в Python [PyCon US] (2013)

Ответить на тему
 
Автор Сообщение

Yulya ®

-Реймонд Хеттинджер - Инструментарий для работы с классами в Python [PyCon US] (2013)- Автор: Raymond Hettinger
Жанр: Программирование
Продолжительность: 00:45:55
Качество видео: HDTV
Видеокодек: DivX
Битрейт видео: ~1331 kb/s, 29.970 FPS
Размер кадра: 720x480
Аудиокодек: MP3
Битрейт аудио: 128 kb/s (CBR), 2 ch, 44100 Hz
Описание:
PyCon US — ежегодная конференция python-разработчиков, проходящая в Соединённых Штатах Америки.
В 2013 году на конференции было представлено более сотни докладов.
Один из ключевых разработчиков языка, евангелист и консультант Реймонд Хеттинджер, расскажет о том, какой инструментарий доступен в Python для работы с классами.
Занятие пройдет в режиме «задача — решение». Мы проследим эволюцию одного класса, поднимем свой стартап, узнаем как правильно использовать различные приёмы программирования, и улыбнёмся.

MediaInfo

General
Complete name : /home/shared/idle/py/PyCon2013-Class_Development_Toolkit-Hettinger.avi
Format : AVI
Format/Info : Audio Video Interleave
File size : 483 MiB
Duration : 45mn 55s
Overall bit rate : 1 471 Kbps
Writing library : VirtualDub build 32842/release
Video
ID : 0
Format : MPEG-4 Visual
Codec ID : DIV3
Codec ID/Hint : DivX 3 Low
Duration : 45mn 55s
Bit rate : 1 331 Kbps
Width : 720 pixels
Height : 480 pixels
Display aspect ratio : 3:2
Frame rate : 29.970 fps
Standard : NTSC
Color space : YUV
Chroma subsampling : 4:2:0
Bit depth : 8 bits
Compression mode : Lossy
Bits/(Pixel*Frame) : 0.129
Stream size : 437 MiB (91%)
Audio
ID : 1
Format : MPEG Audio
Format version : Version 1
Format profile : Layer 3
Mode : Joint stereo
Mode extension : MS Stereo
Codec ID : 55
Codec ID/Hint : MP3
Duration : 45mn 55s
Bit rate mode : Constant
Bit rate : 128 Kbps
Channel(s) : 2 channels
Sampling rate : 44.1 KHz
Compression mode : Lossy
Stream size : 42.0 MiB (9%)
Alignment : Split accross interleaves
Interleave, duration : 33 ms (1.00 video frame)
Interleave, preload duration : 500 ms
Скриншоты:
Скачать .torrent

Для того, чтобы скачать торрент-файл

Реймонд Хеттинджер - Инструментарий для работы с классами в Python [PyCon US] (2013)

с нашего сайта, Вам необходимо Войти на сайт под своим логином! Если у Вас ещё нет логина, тогда Вам нужно сначала Зарегистрироваться!

Как скачивать? · Что такое торрент? · Рейтинг и ограничения

Показать сообщения:    
Ответить на тему

Реймонд Хеттинджер - Инструментарий для работы с классами в Python [PyCon US] (2013) скачать торрент (torrent), видеоуроки, тренинги, обучающее видео и видеокурсы

Текущее время: Сегодня 14:31

Часовой пояс: GMT + 4



Вы не можете начинать темы
Вы не можете отвечать на сообщения
Вы не можете редактировать свои сообщения
Вы не можете удалять свои сообщения
Вы не можете голосовать в опросах
Вы не можете прикреплять файлы к сообщениям
Вы не можете скачивать файлы