Последнее из V.I.P.-раздела

19-Ноя-19 06:59
19-Ноя-19 06:58
19-Ноя-19 06:54
19-Ноя-19 06:49
19-Ноя-19 06:47
19-Ноя-19 06:46
19-Ноя-19 06:37
19-Ноя-19 06:35
19-Ноя-19 06:30
19-Ноя-19 06:25

CyberBionic Systematics - Алгоритмы и структуры данных. Урок 1. Введение в алгоритмы и структуры данных (2014)

Ответить на тему
 
Автор Сообщение

Yulya ®

-CyberBionic Systematics - Алгоритмы и структуры данных. Урок 1. Введение в алгоритмы и структуры данных (2014)- Автор (режиссер): CyberBionic Systematics
Жанр: Видеоурок
Продолжительность: 02:03:45
Качество видео: DVDRip
Видеокодек: AVC1/H.264
Битрейт видео: ~50 Kbps
Размер кадра: 1280*720
Аудиокодек: AAC
Битрейт аудио: 44,100 Hz, 2 Ch, 16 bits, 1411 Kbps
Описание:
Видеокурс позволит Вам глубже понять алгоритмизированный подход построения программ, поскольку программирование - это не только знание основных конструкций языка, но и умение их применять. В курсе Вы ознакомитесь с основными структурами данных, например: стеки, очереди, динамические массивы, хеш-таблицы, списки, двоичные деревья и набором алгоритмов.
Содержание урока:
• Свойства алгоритмов.
• Временная сложность алгоритмов.
• Расчет сложности алгоритма.
• Односвязные списки.
• Двусвязные списки.

MediaInfo

Формат : MPEG-4
Профиль формата : Base Media / Version 2
Идентификатор кодека : mp42
Размер файла : 275 Мбайт
Продолжительность : 2 ч. 3 м.
Режим общего битрейта : Переменный
Общий поток : 311 Кбит/сек
Дата кодирования : UTC 2014-02-09 12:49:34
Дата пометки : UTC 2014-02-09 12:49:34
Видео
Идентификатор : 1
Формат : AVC
Формат/Информация : Advanced Video Codec
Профиль формата : [url=mailto:Main@L3.1]Main@L3.1[/url]
Параметр CABAC формата : Да
Параметр ReFrames формата : 3 кадра
Идентификатор кодека : avc1
Идентификатор кодека/Информация : Advanced Video Coding
Продолжительность : 2 ч. 3 м.
Продолжительность оригинала : 2 ч. 3 м.
Вид битрейта : Переменный
Битрейт : 182 Кбит/сек
Ширина : 1280 пикселей
Высота : 720 пикселей
Соотношение сторон : 16:9
Режим частоты кадров : Переменный
Частота кадров : 30,000 кадров/сек
Минимальная частота кадров : 30,000 кадров/сек
Максимальная частота кадров : 30,030 кадров/сек
Стандарт вещания : NTSC
Цветовое пространство : YUV
Субдискретизация насыщенности : 4:2:0
Битовая глубина : 8 бит
Тип развёртки : Прогрессивная
Бит/(Пиксели*Кадры) : 0.007
Размер потока : 162 Мбайт (59%)
Размер потока оригинала : 162 Мбайт (59%)
Язык : English
Дата кодирования : UTC 2014-02-09 12:49:34
Дата пометки : UTC 2014-02-09 12:49:34
mdhd_Duration : 7424634
Аудио
Идентификатор : 2
Формат : AAC
Формат/Информация : Advanced Audio Codec
Профиль формата : LC
Идентификатор кодека : 40
Продолжительность : 2 ч. 3 м.
Продолжительность оригинала : 2 ч. 3 м.
Вид битрейта : Переменный
Битрейт : 126 Кбит/сек
Максимальный битрейт : 173 Кбит/сек
Каналы : 2 канала
Расположение каналов : Front: L R
Частота : 44,1 КГц
Метод сжатия : С потерями
Размер потока : 111 Мбайт (40%)
Размер потока оригинала : 111 Мбайт (40%)
Язык : English
Дата кодирования : UTC 2014-02-09 12:49:34
Дата пометки : UTC 2014-02-09 12:49:34
mdhd_Duration : 7424674
Скриншоты:
Показать сообщения:    
Ответить на тему

CyberBionic Systematics - Алгоритмы и структуры данных. Урок 1. Введение в алгоритмы и структуры данных (2014) скачать торрент (torrent), видеоуроки, тренинги, обучающее видео и видеокурсы

Текущее время: Сегодня 00:52

Часовой пояс: GMT + 4



Вы не можете начинать темы
Вы не можете отвечать на сообщения
Вы не можете редактировать свои сообщения
Вы не можете удалять свои сообщения
Вы не можете голосовать в опросах
Вы не можете прикреплять файлы к сообщениям
Вы не можете скачивать файлы