Lynda.com - Сведение Рок-Песни в Pro Tools (2014)

Ответить на тему
 
Автор Сообщение

Yulya ®

-Lynda.com - Сведение Рок-Песни в Pro Tools (2014)- Автор (режиссер): Lynda.com
Жанр: Работа со звуком
Язык: Русский
Продолжительность: 02:18:52
Качество видео: PCRec
Видеокодек: AVC/H.264
Битрейт видео: ~1 452 Kbps, 15.000 fps
Размер кадра: 960x540, 16:9
Аудиокодек: AAC
Битрейт аудио: ~144 Kbps, 2 channels, 48.0 KHz
Описание: Профессиональный звукорежиссер Брайан Ли Вайт на протяжении всего курса доведет сырую рок-песню до блестящего звука в Avid Pro Tools. Он использует эквализацию, компрессию, распределяет пространство микса, вешает спецэффекты, удало обрабатывает вокал и ритм секцию. "Mixing a Rock Song in Pro Tools" - станьте профи в сведении рока.

Оригинальное описание:

Watch professional mixer Brian Lee White take a rock song from the raw recorded tracks to a great-sounding, polished mix in Avid Pro Tools. The course moves at a quick pace, showing how to establish a workflow for a particular song and make mixing decisions on the fly. Watch as Brian quickly sets initial levels, sculpts the individual tracks with EQ and compression, uses spatial and special effects to create depth and interest, balances the lead vocal and rhythm section, and adds the finishing touches before bouncing down the mix. Brian also stresses the importance of "thinking like a mixer" by being creative and serving the song, exploring ideas that inspire you, and breaking away from the template mindset.

Содержание:

0101 - Добро пожаловать!
0102 - Что нужно знать перед просмотром этого курса?
0103 - Использование файлов упражнений
0201 - Установка начальных первичных уровней и построение фундамента
0202 - Сделай из ведущего вокала звезду
0203 - Заполнение в ритм-секции
0204 - Обернитесь назад, и станьте креативными
0205 - Использование автоматизации для создания волнения и контраста
0206 - Пересмотр и баунс финального микса

Дополнительная информация:

При озвучивании курса, за основу был взят перевод Василия Шевченко и отредактирован. Также было немного перемонтировано видео, поэтому есть небольшое различие по хронометражу, в сравнении с оригиналом. За озвучивание огромное спасибо известному российскому радио ведущему Майку Миханзону и проекту Golos-Reklama.ru.

MediaInfo:

General
Complete name : E:\Lynda.com - Сведение Рок-Песни в Pro Tools\0101 - Добро пожаловать!.mp4
Format : MPEG-4
Format profile : Base Media
Codec ID : isom
File size : 14.3 MiB
Duration : 1mn 15s
Overall bit rate mode : Variable
Overall bit rate : 1 599 Kbps
Writing application : Lavf52.93.0
Video
ID : 1
Format : AVC
Format/Info : Advanced Video Codec
Format profile : [url=mailto:High@L3.1]High@L3.1[/url]
Format settings, CABAC : Yes
Format settings, ReFrames : 3 frames
Codec ID : avc1
Codec ID/Info : Advanced Video Coding
Duration : 1mn 15s
Bit rate : 1 452 Kbps
Nominal bit rate : 1 800 Kbps
Width : 960 pixels
Height : 540 pixels
Display aspect ratio : 16:9
Frame rate mode : Constant
Frame rate : 15.000 fps
Color space : YUV
Chroma subsampling : 4:2:0
Bit depth : 8 bits
Scan type : Progressive
Bits/(Pixel*Frame) : 0.187
Stream size : 13.0 MiB (91%)
Writing library : x264 core 112
Encoding settings : cabac=1 / ref=3 / deblock=1:0:0 / analyse=0x3:0x113 / me=hex / subme=7 / psy=1 / psy_rd=1.00:0.00 / mixed_ref=1 / me_range=16 / chroma_me=1 / trellis=1 / 8x8dct=1 / cqm=0 / deadzone=21,11 / fast_pskip=1 / chroma_qp_offset=-2 / threads=1 / sliced_threads=0 / nr=0 / decimate=1 / interlaced=0 / constrained_intra=0 / bframes=3 / b_pyramid=0 / b_adapt=1 / b_bias=0 / direct=1 / weightb=1 / open_gop=0 / weightp=2 / keyint=250 / keyint_min=25 / scenecut=40 / intra_refresh=0 / rc_lookahead=40 / rc=abr / mbtree=1 / bitrate=1800 / ratetol=1.0 / qcomp=0.60 / qpmin=10 / qpmax=51 / qpstep=4 / ip_ratio=1.41 / aq=1:1.00
Language : English
Audio
ID : 2
Format : AAC
Format/Info : Advanced Audio Codec
Format profile : LC
Codec ID : 40
Duration : 1mn 15s
Bit rate mode : Variable
Bit rate : 144 Kbps
Channel(s) : 2 channels
Channel positions : Front: L R
Sampling rate : 48.0 KHz
Compression mode : Lossy
Delay relative to video : 67ms
Stream size : 1.27 MiB (9%)
Language : English
Скриншоты:
Скачать .torrent

Для того, чтобы скачать торрент-файл

Lynda.com - Сведение Рок-Песни в Pro Tools (2014)

с нашего сайта, Вам необходимо Войти на сайт под своим логином! Если у Вас ещё нет логина, тогда Вам нужно сначала Зарегистрироваться!

Как скачивать? · Что такое торрент? · Рейтинг и ограничения

Показать сообщения:    
Ответить на тему

Lynda.com - Сведение Рок-Песни в Pro Tools (2014) скачать торрент (torrent), видеоуроки, тренинги, обучающее видео и видеокурсы

Текущее время: Сегодня 14:26

Часовой пояс: GMT + 4



Вы не можете начинать темы
Вы не можете отвечать на сообщения
Вы не можете редактировать свои сообщения
Вы не можете удалять свои сообщения
Вы не можете голосовать в опросах
Вы не можете прикреплять файлы к сообщениям
Вы не можете скачивать файлы