Последнее из V.I.P.-раздела

07-Авг
07-Авг
07-Авг
07-Авг
07-Авг
07-Авг
07-Авг
07-Авг
07-Авг
07-Авг
07-Авг
07-Авг
07-Авг
07-Авг
07-Авг
07-Авг
07-Авг
07-Авг
07-Авг
07-Авг

Новости о коронавирусе

Александр Чалдрян - Adobe Photoshop. Творческая ретушь (2014)

Ответить на тему
 
Автор Сообщение

Yulya ®

-Александр Чалдрян - Adobe Photoshop. Творческая ретушь (2014)- Автор (режиссер): Александр Чалдрян
Жанр: Вебинар
Продолжительность: 19:35:39
Качество видео: PCRec
Видеокодек: Xvid
Битрейт видео: ~1294Kbps 15fps
Размер кадра: 1920x994
Аудиокодек: MP3
Битрейт аудио: 22050Hz mono 128kbps
Доп. материалы: Имеются
Описание:
Основная цель курса – научить пользоваться системой, а не отдельными рецептами и приемами. После курса у вас в голове появится четкое понимание, что делать, «чтобы было, как у них», и вы сможете делать, «чтобы было, как у вас».
Мы разберемся по порядку с цветом, тональной составляющей изображения, атмосферными, световыми и прочими спецэффектами. Эти знания и навыки позволят нам замахнуться на коллаж, а самым смелым и усидчивым – на Matte Painting. Без внимания не останутся частные примеры обработки, в том числе, в стилистике.

Дополнительная информация:

Содержание курса
Занятие 1. Введение в цвет
* Устройство и предназначение цветового круга Иттена.
* Типы цветовых контрастов.
* Гармонические сочетания цветов.
* Adobe Kuler: упрощение построения гармонических сочетаний и почему его не надо использовать.
* Анализ исходного изображения, выработка стратегии цветового решения, выделение чистых цветов.
* Инструменты и методы адаптации картинки в соответствии с гармоническими сочетаниями.
* Использование сторонних плагинов в работе с цветом (Color Efex Pro 4).
Занятие 2. Работа с тональностью и формой
* Концепция высокого и низкого ключа.
* Тональная динамика/однородность изображения (макро-D&B).
* Тональная динамика деталей (микро-D&B).
* Эффект нарисованной картинки (Color Efex Pro 4).
* Кадрирование и деформация перспективы.
* Виньетирование: затемнение и/или размытие (плагин Alien Skin Bokeh).
* Тонирование изображения и наложение зерна.
Занятие 3. Работа с атмосферными и световыми эффектами
* Основы работы с плагином Red Giant Light Factory.
* Работа с текстурами (дождь и снег, свет, блестки, туман и дым).
* Самостоятельная отрисовка некоторых текстур.
* Отрисовка контрового света и цветных рефлексов.
* Добавление источников освещения и их влияние на объекты.
* Анализ пространства и его коррекция в зависимости от изменений в освещении.
Занятие 4. Простой монтаж
* Разновидности монтажа.
* Анализ и подбор исходного материала.
* Постановка на сцену и согласование элементов по тональной и цветовой составляющим.
* Согласование элементов по свету и теням.
* Отрисовка теней.
* Свето-воздушная перспектива.
Занятие 5. Сложный монтаж
* Примеры и назначение сложного монтажа. Matte Painting.
* Планы, ракурсы, эскиз.
* Послойный разбор и анализ примера сложного монтажа и его элементов.
Занятие 6. Частные примеры обработки
* Женщина-робот.
* Методика анализа особенностей обработки того или иного автора.
* Стилистика Ирины Чугуновой.
* Стилистика Карины Киль.
Занятие 7. Консультационное занятие
* Разбор и конструктивная критика черновиков курсовых работ для дальнейшей удачной финализации.
* Ответы на вопросы по темам курса.

MI

Общее
Полное имя : D:\Андрей\Tvorch_retych\Урок 1\Урок1 первая часть.avi
Формат : AVI
Формат/Информация : Audio Video Interleave
Размер файла : 809 Мбайт
Продолжительность : 1 ч. 18 м.
Общий поток : 1432 Кбит/сек
Программа кодирования : Lavf55.30.100
Видео
Идентификатор : 0
Формат : MPEG-4 Visual
Профиль формата : Simple@L3
Параметр BVOP формата : Нет
Параметр QPel формата : Нет
Параметр GMC формата : Без точки перехода
Параметр матрицы формата : Default (H.263)
Идентификатор кодека : XVID
Идентификатор кодека/Подсказка : XviD
Продолжительность : 1 ч. 18 м.
Битрейт : 1294 Кбит/сек
Ширина : 1920 пикселей
Высота : 994 пикселя
Соотношение сторон : 1,932
Частота кадров : 15,000 кадров/сек
Цветовое пространство : YUV
Субдискретизация насыщенности : 4:2:0
Битовая глубина : 8 бит
Тип развёртки : Прогрессивная
Метод сжатия : С потерями
Бит/(Пиксели*Кадры) : 0.045
Размер потока : 730 Мбайт (90%)
Библиотека кодирования : XviD 64
Аудио
Идентификатор : 1
Формат : MPEG Audio
Версия формата : Version 2
Профиль формата : Layer 3
Идентификатор кодека : 55
Идентификатор кодека/Подсказка : MP3
Продолжительность : 1 ч. 18 м.
Вид битрейта : Постоянный
Битрейт : 128 Кбит/сек
Каналы : 1 канал
Частота : 22,05 КГц
Метод сжатия : С потерями
Размер потока : 72,3 Мбайт (9%)
Выравнивание : Соединение по промежуткам
Продолжительность промежутка : 26 мс. (0,39 видеокадр)
Время предзагрузки промежутка : 52 мс.
Библиотека кодирования : LAME3.99.5
Скриншоты:
Скачать .torrent

Для того, чтобы скачать торрент-файл

Александр Чалдрян - Adobe Photoshop. Творческая ретушь (2014)

с нашего сайта, Вам необходимо Войти на сайт под своим логином! Если у Вас ещё нет логина, тогда Вам нужно сначала Зарегистрироваться!

Как скачивать? · Что такое торрент? · Рейтинг и ограничения

Показать сообщения:    
Ответить на тему

Александр Чалдрян - Adobe Photoshop. Творческая ретушь (2014) скачать торрент (torrent), видеоуроки, тренинги, обучающее видео и видеокурсы

Текущее время: Сегодня 01:19

Часовой пояс: GMT + 4



Вы не можете начинать темы
Вы не можете отвечать на сообщения
Вы не можете редактировать свои сообщения
Вы не можете удалять свои сообщения
Вы не можете голосовать в опросах
Вы не можете прикреплять файлы к сообщениям
Вы не можете скачивать файлы