Тимур Батыршинов - Создание и продажа Android приложений (2013)

Ответить на тему
 
Автор Сообщение

Yulya ®

-Тимур Батыршинов - Создание и продажа Android приложений (2013)- Автор (режиссер): Тимур Батыршинов
Жанр: Программирование
Продолжительность: 23:14:20
Качество видео: PCRec
Видеокодек: AVC
Битрейт видео: ~30fps 422kbps
Размер кадра: 1824x1020
Аудиокодек: AAC
Битрейт аудио: 44100Hz stereo 93kbps
Доп. материалы: Имеются
Описание:
Освоить Android программирование сможет любой более-менее опытный программист Java, т.к. сама операционная система и ее API позволяют делать функционал быстро и качественно. Это и отличает Android от других платформ. Этот видеокурс поможет любому новичку быстро освоиться в Android программировании и монетизировать свои приложения.
Для старта нужны минимальные знания.
В отличия от других технологий Android можно освоить без особых предварительных знаний. С полного нуля конечно не получится, но некоторые темы желательно знать:
* Что такое XML (как структура данных) - в них будут храниться многие настройки
* ООП - стиль написание программы, объектов
* DBC - обращение к базе данных стандартными методами

Дополнительная информация:

Темы видеокурса
*Введение в eclipse
*Система Android
*Отличие классов Android от стандартных редакций (J2SE)
*Системные библиотеки
*Общая архитектура
*Структура приложения
*Использование eclipse и плагина
*Управление настройками
*Создание рабочего пространства для удобной работы
*Создание эмулятора для запуска приложения
*Подключение телефона для проверки работы приложения
*Activity
*Layout
*XML представление
*Компоненты
*Слушатели компонентов
*Отображение процесса работы приложения
*Ввода даты и времени
*Ресурсы приложения
*Меню
*Intent
*Фильтры
*Создание пакетов и установка приложения
*Адаптеры
*Диалоги
*Виджеты
*Обращение к стандарным компонентам (Контакты, Календарь и пр.)
*Уведомления и сообщения
*Локализация
*Использование клавиатуры
*Просмотр веб страниц
*Создание приложения "Калькулятор"
*Создание приложения "Список дел"
*Разработка приложения "Учет финансов"
*Создание собственного дизайна приложения (кнопки, картинки, фоны)
*Создание таблиц в SQLite
*Подключение к базе данных SQLite
*Поиск в Android
*Публикация и обновление приложения на Android Market
*Анализ статистики по вашему приложению
*Подробно о способах заработка на Android приложении
*Личная практика по внедрению Android приложений для корпоративных клиентов
*Подводные камни при работе с Android Market
*Тестирование приложения с помощью JUnit
*Оптимизация работы приложения
*Best Practices при разработке
*Список плагинов eclipse для облегчения разработки под Android
*Использование NetBeans для Android, сравнение с eclipse
*Особенности разработки под Android по сравнению с другими технологиями
*Использование OpenGL для 3D анимации
*Работа со звуком и видео
*Доступ к SD карте
*Подключение сторонних библиотек
*Использование камеры
*Ориентация (реакция приложения на поворот телефона)
*Алгоритм портирование обычного приложения под Android
и другое....

MI

Общее
Полное имя : D:\Андрей\Android\video\1-Введение в Android\1-Intro.mp4
Формат : MPEG-4
Профиль формата : Base Media / Version 2
Идентификатор кодека : mp42
Размер файла : 53,1 Мбайт
Продолжительность : 14 м.
Режим общего битрейта : Переменный
Общий поток : 518 Кбит/сек
Дата кодирования : UTC 2013-10-17 15:08:51
Дата пометки : UTC 2013-10-17 15:08:51
Видео
Идентификатор : 1
Формат : AVC
Формат/Информация : Advanced Video Codec
Профиль формата : [url=mailto:Baseline@L4.0]Baseline@L4.0[/url]
Параметр CABAC формата : Нет
Параметр ReFrames формата : 3 кадра
Идентификатор кодека : avc1
Идентификатор кодека/Информация : Advanced Video Coding
Продолжительность : 14 м.
Продолжительность оригинала : 14 м.
Вид битрейта : Переменный
Битрейт : 422 Кбит/сек
Ширина : 1824 пикселей
Высота : 1020 пикселей
Соотношение сторон : 16:9
Режим частоты кадров : Переменный
Частота кадров : 30,000 кадров/сек
Минимальная частота кадров : 30,000 кадров/сек
Максимальная частота кадров : 30,030 кадров/сек
Стандарт вещания : NTSC
Цветовое пространство : YUV
Субдискретизация насыщенности : 4:2:0
Битовая глубина : 8 бит
Тип развёртки : Прогрессивная
Бит/(Пиксели*Кадры) : 0.008
Размер потока : 43,2 Мбайт (81%)
Размер потока оригинала : 43,2 Мбайт (81%)
Язык : English
Дата кодирования : UTC 2013-10-17 15:08:52
Дата пометки : UTC 2013-10-17 15:08:52
mdhd_Duration : 858600
Аудио
Идентификатор : 2
Формат : AAC
Формат/Информация : Advanced Audio Codec
Профиль формата : LC
Идентификатор кодека : 40
Продолжительность : 14 м.
Продолжительность оригинала : 14 м.
Вид битрейта : Переменный
Битрейт : 93,6 Кбит/сек
Максимальный битрейт : 126 Кбит/сек
Каналы : 2 канала
Расположение каналов : Front: L R
Частота : 44,1 КГц
Метод сжатия : С потерями
Размер потока : 9,58 Мбайт (18%)
Размер потока оригинала : 9,58 Мбайт (18%)
Язык : English
Дата кодирования : UTC 2013-10-17 15:08:52
Дата пометки : UTC 2013-10-17 15:08:52
mdhd_Duration : 858628
Скриншоты:
Скачать .torrent

Для того, чтобы скачать торрент-файл

Тимур Батыршинов - Создание и продажа Android приложений (2013)

с нашего сайта, Вам необходимо Войти на сайт под своим логином! Если у Вас ещё нет логина, тогда Вам нужно сначала Зарегистрироваться!

Как скачивать? · Что такое торрент? · Рейтинг и ограничения

Показать сообщения:    
Ответить на тему

Тимур Батыршинов - Создание и продажа Android приложений (2013) скачать торрент (torrent), видеоуроки, тренинги, обучающее видео и видеокурсы

Текущее время: Сегодня 18:25

Часовой пояс: GMT + 4



Вы не можете начинать темы
Вы не можете отвечать на сообщения
Вы не можете редактировать свои сообщения
Вы не можете удалять свои сообщения
Вы не можете голосовать в опросах
Вы не можете прикреплять файлы к сообщениям
Вы не можете скачивать файлы