Ирина Калмыкова - Авторская ретушь МК Ирины Калмыковой (2013)

Ответить на тему
 
Автор Сообщение

Yulya ®

-Ирина Калмыкова - Авторская ретушь МК Ирины Калмыковой (2013)- Автор (режиссер): Ирина Калмыкова
Жанр: Обучающий видеокурс
Продолжительность: 02:48:06
Качество видео: PCRec
Видеокодек: AVC
Битрейт видео: ~60fps 1971kbps
Размер кадра: 2560x1440
Аудиокодек: AAC
Битрейт аудио: 44100Hz stereo 264kbps
Доп. материалы: Имеются
Описание:
В процессе обучения автор Ирина Калмыкова рассказывает не об общепринятых методах работы, а о своем личном подходе к процессу обработки, о том, какие способы обработки для неё удобны, какие кажутся ей наиболее подходящими и выигрышными, а также о множестве интересных приёмов, взятых из многолетних занятий живописью, которые автор очень активно использует в своей работе.

Дополнительная информация:

Программа курса
1. Введение.
— В каких редакторах я работаю, и почему я выбрала именно их;
— На что обратить внимание при съёмке, чтобы упростить обработку;
— Просмотр галереи моих работ в режиме ДО и ПОСЛЕ (вы можете заранее дать ссылки на интересующие вас фотографии);
— Цветовые профили, форматы изображений и основные настройки редакторов.
— Основы цвета.
*основные настройки, список интересных книг и ссылок для фотографов будут продублированы в
печатном варианте.
2. Конвертация.
— Процесс обработки фото. Особенности тона. Работа с яркостью и контрастом, тенями и пересветами. Цветовая коррекция.
— Что делается в конвертере, а что в Photoshop;
— Приведение серии снимков к одному стилю;
— Оптимизация скорости работы;
— Подготовка изображений к дальнейшей коррекции в Photoshop.
3. Первичная и классическая обработка в Adobe Photoshop.
— Техническая ретушь — получение технически чистого фото, пригодного для дальнейшей работы и стилизации;
— Классическая обработка от А до Я ;
— Коррекция в режиме Lab.
4. Ретушь.
— Детальное рассмотрение одного из способов ретуши.
— Взаимосвязь тона кожи с расой, возрастом и т.д.;
— Числа нам в помощь: как проверить тон кожи не на глаз. Ориентировочные значения цветовых координат;
— Способы коррекции тона кожи;
— Что делать, когда вы основательно запутались с тоном кожи.
5. Пример цветокоррекции в Adobe Photoshop.
— Рассмотрение нескольких способов цветокоррекции, тонирования;
— Хитрости и спецэффекты.
— Способ художественной обработки фото, при котором работа идёт не в привычном порядке

MI

Общее
Полное имя : D:\Андрей\retuh.kalmikov
Формат : MPEG-4
Профиль формата : QuickTime
Идентификатор кодека : qt
Размер файла : 880 Мбайт
Общий поток : 2238 Кбит/сек
Дата кодирования : UTC 2013-03-21 08:53:58
Дата пометки : UTC 2013-03-21 08:54:22
Библиотека кодирования : Apple QuickTime
com.apple.quicktime.make : Apple
com.apple.quicktime.model : iMac12,2
com.apple.quicktime.software : Mac OS X 10.8.2 (12C60)
com.apple.quicktime.creationdate : 2013-03-21T11:37:42+0400
Видео
Идентификатор : 1
Формат : AVC
Формат/Информация : Advanced Video Codec
Профиль формата : [url=mailto:Main@L5.0]Main@L5.0[/url]
Параметр CABAC формата : Нет
Параметр ReFrames формата : 2 кадра
Идентификатор кодека : avc1
Идентификатор кодека/Информация : Advanced Video Coding
Битрейт : 1971 Кбит/сек
Ширина : 2560 пикселей
Высота : 1440 пикселей
Соотношение сторон : 16:9
Режим частоты кадров : Переменный
Частота кадров : 11,576 кадров/сек
Минимальная частота кадров : 2,069 кадра/сек
Максимальная частота кадров : 60,000 кадров/сек
Цветовое пространство : YUV
Субдискретизация насыщенности : 4:2:0
Битовая глубина : 8 бит
Тип развёртки : Прогрессивная
Бит/(Пиксели*Кадры) : 0.046
Размер потока : 775 Мбайт (88%)
Заголовок : Core Media Video
Дата кодирования : UTC 2013-03-21 08:53:58
Дата пометки : UTC 2013-03-21 08:54:22
Основные цвета : BT.709
Характеристики трансфера : BT.709
Коэффициенты матрицы : BT.709
Аудио
Идентификатор : 2
Формат : AAC
Формат/Информация : Advanced Audio Codec
Профиль формата : LC
Идентификатор кодека : 40
Вид битрейта : Постоянный
Битрейт : 265 Кбит/сек
Номинальный битрейт : 320 Кбит/сек
Каналы : 2 канала
Расположение каналов : Front: L R
Частота : 44,1 КГц
Метод сжатия : С потерями
Задержка видео : -28 мс.
Размер потока : 104 Мбайт (12%)
Размер потока оригинала : 104 Мбайт (12%)
Заголовок : Core Media Audio
Дата кодирования : UTC 2013-03-21 08:53:58
Дата пометки : UTC 2013-03-21 08:54:22
Скриншоты:
Скачать .torrent

Для того, чтобы скачать торрент-файл

Ирина Калмыкова - Авторская ретушь МК Ирины Калмыковой (2013)

с нашего сайта, Вам необходимо Войти на сайт под своим логином! Если у Вас ещё нет логина, тогда Вам нужно сначала Зарегистрироваться!

Как скачивать? · Что такое торрент? · Рейтинг и ограничения

Star9111

Очень качественные уроки. Многому можно научиться. За раздачу + в репу!
Показать сообщения:    
Ответить на тему

Ирина Калмыкова - Авторская ретушь МК Ирины Калмыковой (2013) скачать торрент (torrent), видеоуроки, тренинги, обучающее видео и видеокурсы

Текущее время: Сегодня 07:59

Часовой пояс: GMT + 4



Вы не можете начинать темы
Вы не можете отвечать на сообщения
Вы не можете редактировать свои сообщения
Вы не можете удалять свои сообщения
Вы не можете голосовать в опросах
Вы не можете прикреплять файлы к сообщениям
Вы не можете скачивать файлы