Евгений Серов - Антимошенник (2013)

Ответить на тему
 
Автор Сообщение

Yulya ®

-Евгений Серов - Антимошенник (2013)- Автор (режиссер): Евгений Серов
Жанр: Обучающий видеокурс
Продолжительность: 02:56:19
Качество видео: PCRec
Видеокодек: AVI
Битрейт видео: ~30fps 644kbps
Размер кадра: 1280x720
Аудиокодек: AAC
Битрейт аудио: 44100Hz stereo 191kbps
Доп. материалы: Имеются
Описание:
В видеокурсе подробно объясняется как защититься от современного взлома социальных сетей, как правильно защитить свой компьютер от баннеров-вымогателей, раскроет некоторые нюансы и секреты системы безопасности и сделать использование интернета значительно безопаснее, а так же, в видеокурсе приведено несколько простых решений для защиты и разблокировки Рабочего стола ПК, Вконтакте, Одноклассники, электронной почты и несколько простых шагов для защиты планшета или смартфона.

Дополнительная информация:

Содержание:
01. Используете простой пароль для входа? Брутфорс или подбор пароля к странице в социальной сети. (3 части).
02. Взлом социальной сети с помощью фишинг-атаки через электронную почту.
03. Примеры защиты электронного ящика от фишинга, фарминга и т.п.
04. Кейлоггер. Защита от скрытых программ.
05. Удаление баннера. Вступительная часть.
06. Удаление баннера одним кликом с помощью Live DVD (для неопытных пользователей).
07. Как убрать сложный баннер блокиратор MBR с помощью загрузочной флешки.
08. Разблокировка поисковых систем Яндекса, Google, Mail.ru и др.
09. Как с помощью DNS сделать Интернет безопаснее.
10. Вирус скрыл папки на флешке_ Что делать?
11. Бесплатная защита смартфонов и планшетов.
12. Четыре простых шага для защиты планшета или смартфона.

MI

Общее
Полное имя : D:\Андрей\Antimoshennik\1. 0 Используете простой пароль для входа Брутфорс или подбор пароля к странице в социальной сети.mp4
Формат : MPEG-4
Профиль формата : Base Media / Version 2
Идентификатор кодека : mp42
Размер файла : 112 Мбайт
Продолжительность : 18 м.
Режим общего битрейта : Переменный
Общий поток : 845 Кбит/сек
Дата кодирования : UTC 2013-12-30 11:37:38
Дата пометки : UTC 2013-12-30 11:37:38
gsst : 0
gstd : 1119573
gssd : B4A7DD8C8MH1396303066076470
gshh : r8---sn-cg07luek.googlevideo.com
Видео
Идентификатор : 1
Формат : AVC
Формат/Информация : Advanced Video Codec
Профиль формата : [url=mailto:High@L3.1]High@L3.1[/url]
Параметр CABAC формата : Да
Параметр ReFrames формата : 1 кадр
Параметр GOP формата : M=1, N=60
Идентификатор кодека : avc1
Идентификатор кодека/Информация : Advanced Video Coding
Продолжительность : 18 м.
Битрейт : 644 Кбит/сек
Ширина : 1280 пикселей
Высота : 720 пикселей
Соотношение сторон : 16:9
Режим частоты кадров : Переменный
Частота кадров : 30,000 кадров/сек
Минимальная частота кадров : 29,990 кадров/сек
Максимальная частота кадров : 30,010 кадров/сек
Цветовое пространство : YUV
Субдискретизация насыщенности : 4:2:0
Битовая глубина : 8 бит
Тип развёртки : Прогрессивная
Бит/(Пиксели*Кадры) : 0.023
Размер потока : 85,6 Мбайт (76%)
Язык : English
Дата кодирования : UTC 2013-12-30 11:37:38
Дата пометки : UTC 2013-12-30 11:37:38
Аудио
Идентификатор : 2
Формат : AAC
Формат/Информация : Advanced Audio Codec
Профиль формата : LC
Идентификатор кодека : 40
Продолжительность : 18 м.
Продолжительность оригинала : 18 м.
Вид битрейта : Переменный
Битрейт : 191 Кбит/сек
Каналы : 2 канала
Расположение каналов : Front: L R
Частота : 44,1 КГц
Метод сжатия : С потерями
Размер потока : 25,5 Мбайт (23%)
Размер потока оригинала : 25,5 Мбайт (23%)
Язык : English
Дата кодирования : UTC 2013-12-30 11:37:38
Дата пометки : UTC 2013-12-30 11:37:38
mdhd_Duration : 1115147
Скриншоты:
Скачать .torrent

Для того, чтобы скачать торрент-файл

Евгений Серов - Антимошенник (2013)

с нашего сайта, Вам необходимо Войти на сайт под своим логином! Если у Вас ещё нет логина, тогда Вам нужно сначала Зарегистрироваться!

Как скачивать? · Что такое торрент? · Рейтинг и ограничения

Показать сообщения:    
Ответить на тему

Евгений Серов - Антимошенник (2013) скачать торрент (torrent), видеоуроки, тренинги, обучающее видео и видеокурсы

Текущее время: Сегодня 02:54

Часовой пояс: GMT + 4



Вы не можете начинать темы
Вы не можете отвечать на сообщения
Вы не можете редактировать свои сообщения
Вы не можете удалять свои сообщения
Вы не можете голосовать в опросах
Вы не можете прикреплять файлы к сообщениям
Вы не можете скачивать файлы