Pro Бобр - Видеоуроки по Rhinoceros (Rhino), T-Splines от Бобра (2011)

Ответить на тему
 
Автор Сообщение

Yulya ®

-Pro Бобр - Видеоуроки по Rhinoceros (Rhino), T-Splines от Бобра (2011)- Автор: Pro/Бобр
Жанр: 3D моделирование
Год выпуска: 2011
Продолжительность: 07:15:00
Качество видео: PCRec
Видеокодек: AVC1
Битрейт видео: ~1112 и 795 kb/s, 15,000 FPS
Размер кадра: 1280x1024 и 920x720
Аудиокодек: AAC
Битрейт аудио: 112 kb/s (CBR), 2 Ch, 44100 Hz
Описание:
Уроки моделирования в Rhino 3D v.4 от Pro/Бобра. Автор научит вас работе с двумерными объектами, редактированию кривых, трансформации объектов, редактированию твердотельных объектов а так же T-Splines for Rhino.

Содержание:

Видеоуроки посвященные Rhino:
Знакомство с интерфейсом и навигацией. HD
Работа с двумерными объектами.
Абсолютные и относительные координаты, привязки.
Редактировании кривых с помощью команд
Трансформация объектов командами
Моделирование резинового утенка (Split, Blend Surface и Orient on Surface)
Твердотельные объекты
Редактирование твердотельных объектов (Solid Tools)
Поверхности (4 части)
Трансформация: FlowAlongSrf и BlendSrf
Инструменты редактирования поверхностей (2 части)
Видеоуроки посвященные T-Splines for Rhino:
T-Splines для Rhino. Пришиваем пальцы к ладони.
T-Splines для Rhino. Экструдированный кубик.
T-Splines для Rhino. Желоб.
T-Splines для Rhino. Углубление квадратное.
T-Splines для Rhino. Создание барельефа карточной масти (4 части).
T-splines для Rhino 4. Сопряжения поверхностей (3 части)
Вопрос-Ответ:
Rhino 4. Использование конструкционных планов (CPlan).
Rhino 4. Создание виртуальной студии с использованием команды PictureFram.

MediaInfo:

General
Complete name : D:\Навести порядок\3D моделирование\Zbrush и уроки\Видеоуроки Rhinoceros 4 от Pro-Бобра (RUS)\Урок 3. Координаты, объектные привязки, кривые.mp4
Format : MPEG-4
Format profile : Base Media / Version 2
Codec ID : mp42
File size : 181 MiB
Duration : 34mn 0s
Overall bit rate mode : Variable
Overall bit rate : 743 Kbps
Encoded date : UTC 2012-03-11 15:17:00
Tagged date : UTC 2012-03-11 15:17:00
gsst : 0
gstd : 2040383
gssd : B4A7DADC4MH1396883833672418
gshh : r13---sn-4g57knde.googlevideo.com
Video
ID : 1
Format : AVC
Format/Info : Advanced Video Codec
Format profile : [url=mailto:High@L3.1]High@L3.1[/url]
Format settings, CABAC : Yes
Format settings, ReFrames : 1 frame
Codec ID : avc1
Codec ID/Info : Advanced Video Coding
Duration : 34mn 0s
Bit rate : 609 Kbps
Maximum bit rate : 4 501 Kbps
Width : 960 pixels
Height : 720 pixels
Display aspect ratio : 4:3
Frame rate mode : Constant
Frame rate : 15.000 fps
Color space : YUV
Chroma subsampling : 4:2:0
Bit depth : 8 bits
Scan type : Progressive
Bits/(Pixel*Frame) : 0.059
Stream size : 148 MiB (82%)
Tagged date : UTC 2012-03-11 15:17:02
Audio
ID : 2
Format : AAC
Format/Info : Advanced Audio Codec
Format profile : LC
Codec ID : 40
Duration : 34mn 0s
Bit rate mode : Variable
Bit rate : 132 Kbps
Maximum bit rate : 185 Kbps
Channel(s) : 2 channels
Channel positions : Front: L R
Sampling rate : 44.1 KHz
Compression mode : Lossy
Stream size : 32.1 MiB (18%)
Title : IsoMedia File Produced by Google, 5-11-2011
Encoded date : UTC 2012-03-11 15:17:01
Tagged date : UTC 2012-03-11 15:17:02
Скриншоты:
Скачать .torrent

Для того, чтобы скачать торрент-файл

Pro Бобр - Видеоуроки по Rhinoceros (Rhino), T-Splines от Бобра (2011)

с нашего сайта, Вам необходимо Войти на сайт под своим логином! Если у Вас ещё нет логина, тогда Вам нужно сначала Зарегистрироваться!

Как скачивать? · Что такое торрент? · Рейтинг и ограничения

Показать сообщения:    
Ответить на тему

Pro Бобр - Видеоуроки по Rhinoceros (Rhino), T-Splines от Бобра (2011) скачать торрент (torrent), видеоуроки, тренинги, обучающее видео и видеокурсы

Текущее время: Сегодня 13:04

Часовой пояс: GMT + 4



Вы не можете начинать темы
Вы не можете отвечать на сообщения
Вы не можете редактировать свои сообщения
Вы не можете удалять свои сообщения
Вы не можете голосовать в опросах
Вы не можете прикреплять файлы к сообщениям
Вы не можете скачивать файлы