Специалист - Kaspersky Lab: новые возможности информационной безопасности (2014)

Ответить на тему
 
Автор Сообщение

Yulya ®

-Специалист - Kaspersky Lab: новые возможности информационной безопасности (2014)- Автор (режиссер): "Специалист"
Жанр: Вебинар
Продолжительность: 01:26:32
Качество видео: PCRec
Видеокодек: AVC
Битрейт видео: ~25fps 1018kbps
Размер кадра: 1280x720
Аудиокодек: AAC
Битрейт аудио: 44100Hz stereo 192kbps
Описание:
Вы системный администратор? Специалист по информационной безопасности? Вас интересуют проблемы шифрования информации или защиты мобильных устройств? На вебинаре Центра компьютерного обучения «Специалист» при МГТУ им. Н.Э. Баумана "Kaspersky Lab: новые возможности информационной безопасности" Вы узнаете как осуществить эффективную защиту информации без применения антивирусных программ.
Cеминар по работе с новой версией антивируса Касперского ведет сертифицированный тренер Kaspersky Lab и обладатель 9 сертификаций Microsoft Петр Бойцов.

Дополнительная информация:

На вебинаре по работе и настройке новой версии антивируса Касперского вы узнаете о новейшей линейке курсов от Лаборатории Касперского. Их отличительная особенность в том, что они не привязаны к работе какого-либо конкретного антивируса, а дают современные знания по эффективной информационной защите, шифрованию и защите мобильных устройств.

MI

Общее
Полное имя : D:\Андрей\Антивирус Касперского - новые возможности информационной безопасности.mp4
Формат : MPEG-4
Профиль формата : Base Media / Version 2
Идентификатор кодека : mp42
Размер файла : 751 Мбайт
Продолжительность : 1 ч. 26 м.
Режим общего битрейта : Переменный
Общий поток : 1213 Кбит/сек
Дата кодирования : UTC 2014-03-09 00:48:44
Дата пометки : UTC 2014-03-09 00:48:44
gsst : 0
gstd : 5192886
gssd : B4A7DDA82HH1395225592944308
gshh : r2---sn-4g57kue6.googlevideo.com
Видео
Идентификатор : 1
Формат : AVC
Формат/Информация : Advanced Video Codec
Профиль формата : [url=mailto:High@L3.1]High@L3.1[/url]
Параметр CABAC формата : Да
Параметр ReFrames формата : 1 кадр
Параметр GOP формата : M=1, N=60
Идентификатор кодека : avc1
Идентификатор кодека/Информация : Advanced Video Coding
Продолжительность : 1 ч. 26 м.
Битрейт : 1018 Кбит/сек
Максимальный битрейт : 4026 Кбит/сек
Ширина : 1280 пикселей
Высота : 720 пикселей
Соотношение сторон : 16:9
Режим частоты кадров : Постоянный
Частота кадров : 25,000 кадров/сек
Цветовое пространство : YUV
Субдискретизация насыщенности : 4:2:0
Битовая глубина : 8 бит
Тип развёртки : Прогрессивная
Бит/(Пиксели*Кадры) : 0.044
Размер потока : 631 Мбайт (84%)
Дата пометки : UTC 2014-03-09 00:56:30
Аудио
Идентификатор : 2
Формат : AAC
Формат/Информация : Advanced Audio Codec
Профиль формата : LC
Идентификатор кодека : 40
Продолжительность : 1 ч. 26 м.
Вид битрейта : Переменный
Битрейт : 192 Кбит/сек
Максимальный битрейт : 202 Кбит/сек
Каналы : 2 канала
Расположение каналов : Front: L R
Частота : 44,1 КГц
Метод сжатия : С потерями
Размер потока : 119 Мбайт (16%)
Заголовок : IsoMedia File Produced by Google, 5-11-2011
Дата кодирования : UTC 2014-03-09 00:52:51
Дата пометки : UTC 2014-03-09 00:56:30
Скриншоты:
Скачать .torrent

Для того, чтобы скачать торрент-файл

Специалист - Kaspersky Lab: новые возможности информационной безопасности (2014)

с нашего сайта, Вам необходимо Войти на сайт под своим логином! Если у Вас ещё нет логина, тогда Вам нужно сначала Зарегистрироваться!

Как скачивать? · Что такое торрент? · Рейтинг и ограничения

Показать сообщения:    
Ответить на тему

Специалист - Kaspersky Lab: новые возможности информационной безопасности (2014) скачать торрент (torrent), видеоуроки, тренинги, обучающее видео и видеокурсы

Текущее время: Сегодня 03:21

Часовой пояс: GMT + 4



Вы не можете начинать темы
Вы не можете отвечать на сообщения
Вы не можете редактировать свои сообщения
Вы не можете удалять свои сообщения
Вы не можете голосовать в опросах
Вы не можете прикреплять файлы к сообщениям
Вы не можете скачивать файлы