CyberBionic Systematics - Вебинар "Photoshop: зачем он нужен веб-разработчику?" (2014)

Ответить на тему
 
Автор Сообщение

Yulya ®

-CyberBionic Systematics - Вебинар "Photoshop: зачем он нужен веб-разработчику?" (2014)- Автор (режиссер): CyberBionic Systematics
Сайт производителя: http://edu.cbsystematics.com/
Жанр: Вебинар
Продолжительность: 01:07:00
Качество видео: DVDRip
Видеокодек: AVC1/H.264
Битрейт видео: ~50 Kbps
Размер кадра: 1280*720
Аудиокодек: AAC
Битрейт аудио: 44,100 Hz, 2 Ch, 16 bits, 1411 Kbps
Описание:
Запись вебинара от 12.03.14.
Ведущий: Антон Гаврашенко, дизайнер, веб-разработчик, тренер
О чем и для кого:
Вебинар будет интересен и полезен начинающим веб-разработчикам, которые еще не имеют навыков работы в Photoshop. На вебинаре будут рассмотрены такие вопросы: Что такое Photoshop, его преимущества и сферы использования. Особенности работы с изображениями для WEB. Программа обучения веб-разработчиков основам Photoshop для WEB.

MediaInfo

Формат : MPEG-4
Профиль формата : Base Media / Version 2
Идентификатор кодека : mp42
Размер файла : 158 Мбайт
Продолжительность : 1 ч. 7 м.
Режим общего битрейта : Переменный
Общий поток : 326 Кбит/сек
Дата кодирования : UTC 2014-03-13 20:55:13
Дата пометки : UTC 2014-03-13 20:55:13
Видео
Идентификатор : 1
Формат : AVC
Формат/Информация : Advanced Video Codec
Профиль формата : [url=mailto:Main@L3.1]Main@L3.1[/url]
Параметр CABAC формата : Да
Параметр ReFrames формата : 3 кадра
Параметр GOP формата : M=1, N=125
Идентификатор кодека : avc1
Идентификатор кодека/Информация : Advanced Video Coding
Продолжительность : 1 ч. 7 м.
Вид битрейта : Переменный
Битрейт : 198 Кбит/сек
Ширина : 1280 пикселей
Высота : 720 пикселей
Соотношение сторон : 16:9
Режим частоты кадров : Постоянный
Частота кадров : 25,000 кадров/сек
Стандарт вещания : PAL
Цветовое пространство : YUV
Субдискретизация насыщенности : 4:2:0
Битовая глубина : 8 бит
Тип развёртки : Прогрессивная
Бит/(Пиксели*Кадры) : 0.009
Размер потока : 95,7 Мбайт (61%)
Язык : English
Дата кодирования : UTC 2014-03-13 20:55:13
Дата пометки : UTC 2014-03-13 20:55:13
Аудио
Идентификатор : 2
Формат : AAC
Формат/Информация : Advanced Audio Codec
Профиль формата : LC
Идентификатор кодека : 40
Продолжительность : 1 ч. 7 м.
Продолжительность оригинала : 1 ч. 7 м.
Вид битрейта : Переменный
Битрейт : 126 Кбит/сек
Максимальный битрейт : 224 Кбит/сек
Каналы : 2 канала
Расположение каналов : Front: L R
Частота : 44,1 КГц
Метод сжатия : С потерями
Размер потока : 60,7 Мбайт (39%)
Размер потока оригинала : 60,7 Мбайт (39%)
Язык : English
Дата кодирования : UTC 2014-03-13 20:55:13
Дата пометки : UTC 2014-03-13 20:55:13
mdhd_Duration : 4050210
Скриншоты:
Скачать .torrent

Для того, чтобы скачать торрент-файл

CyberBionic Systematics - Вебинар "Photoshop: зачем он нужен веб-разработчику?" (2014)

с нашего сайта, Вам необходимо Войти на сайт под своим логином! Если у Вас ещё нет логина, тогда Вам нужно сначала Зарегистрироваться!

Как скачивать? · Что такое торрент? · Рейтинг и ограничения

Показать сообщения:    
Ответить на тему

CyberBionic Systematics - Вебинар "Photoshop: зачем он нужен веб-разработчику?" (2014) скачать торрент (torrent), видеоуроки, тренинги, обучающее видео и видеокурсы

Текущее время: Сегодня 02:40

Часовой пояс: GMT + 4



Вы не можете начинать темы
Вы не можете отвечать на сообщения
Вы не можете редактировать свои сообщения
Вы не можете удалять свои сообщения
Вы не можете голосовать в опросах
Вы не можете прикреплять файлы к сообщениям
Вы не можете скачивать файлы