Последнее из V.I.P.-раздела

19-Ноя-19 06:59
19-Ноя-19 06:58
19-Ноя-19 06:54
19-Ноя-19 06:49
19-Ноя-19 06:47
19-Ноя-19 06:46
19-Ноя-19 06:37
19-Ноя-19 06:35
19-Ноя-19 06:30
19-Ноя-19 06:25

Джереми Шубек - Грамотная работа со слоями в Photoshop CS6 (2014)

Ответить на тему
 
Автор Сообщение

Yulya ®

-Джереми Шубек - Грамотная работа со слоями в Photoshop CS6 (2014)- Автор (режиссер): Джереми Шубек
Жанр: Обучающие видеуроки
Продолжительность: 00:42:36
Качество видео: DVDRip
Видеокодек: MPEG4 (AVC)
Битрейт видео: ~1 027 Kbps
Размер кадра: 1152х720
Аудиокодек: AAC
Битрейт аудио: 152 Kbps, 2 ch
Описание:
В Photoshop одна из самых главных возможностей — это использование слоев. Каждый слой в Photoshop — это отдельное изображение, которое можно редактировать отдельно от любого другого слоя. Любой слой в документе может быть просмотрен, как отдельное изображение. Вместе, все слои образуют единое изображение.

Видеоуроки:

1. -Понимание слоев
2. -Выравнивание слоев
3. -Отмена действий в панели истории
4. -Смарт-объекты против нормальных слоев
5. -Размер холста против размера изображения
6. -Создание копий при помощи клавиши Alt
7. -Флиппинг слои
8. -Модификаторы инструментов трансформации
9. -Связывание слоев
10. -Группировка слоев
11. -Объединение групп
12. -Не объединенные слои
13. -Разделение изображения
14. -Добавление цветных зон
15. -Подведение итогов по теме слоев

MediaInfo:

General
Complete name : 08. Понимание слоев.mp4
Format : MPEG-4
Format profile : Base Media
Codec ID : isom
File size : 36.5 MiB
Duration : 4mn 18s
Overall bit rate : 1 183 Kbps
Encoded date : UTC 2010-12-16 18:55:47
Tagged date : UTC 2010-12-16 18:55:47
Writing application : Lavf51.12.1
Video
ID : 1
Format : AVC
Format/Info : Advanced Video Codec
Format profile : [url=mailto:Baseline@L3.1]Baseline@L3.1[/url]
Format settings, CABAC : No
Format settings, ReFrames : 1 frame
Codec ID : avc1
Codec ID/Info : Advanced Video Coding
Duration : 4mn 18s
Bit rate mode : Variable
Bit rate : 1 027 Kbps
Width : 1 152 pixels
Height : 720 pixels
Display aspect ratio : 1.600
Frame rate mode : Constant
Frame rate : 30.000 fps
Color space : YUV
Chroma subsampling : 4:2:0
Bit depth : 8 bits
Scan type : Progressive
Bits/(Pixel*Frame) : 0.041
Stream size : 31.6 MiB (87%)
Encoded date : UTC 2010-12-16 18:55:47
Tagged date : UTC 2010-12-16 18:55:47
Audio
ID : 2
Format : AAC
Format/Info : Advanced Audio Codec
Format profile : LC
Codec ID : 40
Duration : 4mn 18s
Bit rate mode : Variable
Bit rate : 152 Kbps
Channel(s) : 2 channels
Channel positions : Front: L R
Sampling rate : 44.1 KHz
Compression mode : Lossy
Stream size : 4.68 MiB (13%)
Encoded date : UTC 2010-12-16 18:55:47
Tagged date : UTC 2010-12-16 18:55:47
Скачать .torrent

Для того, чтобы скачать торрент-файл

Джереми Шубек - Грамотная работа со слоями в Photoshop CS6 (2014)

с нашего сайта, Вам необходимо Войти на сайт под своим логином! Если у Вас ещё нет логина, тогда Вам нужно сначала Зарегистрироваться!

Как скачивать? · Что такое торрент? · Рейтинг и ограничения

Показать сообщения:    
Ответить на тему

Джереми Шубек - Грамотная работа со слоями в Photoshop CS6 (2014) скачать торрент (torrent), видеоуроки, тренинги, обучающее видео и видеокурсы

Текущее время: Сегодня 01:27

Часовой пояс: GMT + 4



Вы не можете начинать темы
Вы не можете отвечать на сообщения
Вы не можете редактировать свои сообщения
Вы не можете удалять свои сообщения
Вы не можете голосовать в опросах
Вы не можете прикреплять файлы к сообщениям
Вы не можете скачивать файлы