Последнее из V.I.P.-раздела

19-Ноя-19 06:59
19-Ноя-19 06:58
19-Ноя-19 06:54
19-Ноя-19 06:49
19-Ноя-19 06:47
19-Ноя-19 06:46
19-Ноя-19 06:37
19-Ноя-19 06:35
19-Ноя-19 06:30
19-Ноя-19 06:25

Олег Накрошаев - Азбука работы с каналами в фотошопе (2014)

Ответить на тему
 
Автор Сообщение

Yulya ®

-Олег Накрошаев - Азбука работы с каналами в фотошопе (2014)- Автор (режиссер): Олег Накрошаев
Жанр: Вэбинар
Продолжительность: 02:00:20
Качество видео: PCRec
Видеокодек: AVC
Битрейт видео: ~10fps 301kbps
Размер кадра: 1280x720
Аудиокодек: AAC
Битрейт аудио: 44100Hz stereo 93kbps
Описание:
В вебинаре "Азбука работы с каналами в фотошопе" подробно рассмотрены работа с каналами в фотошопе и их применения для улучшения качества фотографий.
Работа с каналами в фотошопе рассмотрена на примере русифицированной программы Photoshop CS6.
Но показанные методы работы легко применимы и в других версиях фотошопа.

Дополнительная информация:

Что будет рассмотрено на вебинаре:
1. Основные сведения о каналах:
• где найти палитру "Каналы", горячие клавиши для отображения палитры
• сколько и какие каналы у фотографии в разных цветовых моделях
• горячие клавиши для работы с каналами
2. Просмотр каналов в цветном виде и в градациях серого, что выбрать
3. Работа с палитрой "Каналы"
4. Создание канала на основе выделения
5. Практический пример отделения простого объекта от фона с помощью каналов, работа с Альфа каналом
6. Четыре способа загрузки выделения с помощью каналов
7. Таблица клавиатурных сочетаний и команд для работы с каналами
8. Маскирование с использованием каналов (практический пример)
9. Комбинирование масок каналов, объединение каналов (практический пример создания сложной маски)
10. От цветного изображения к полутоновому с помощью каналов (практический пример)
11. Улучшение цветов с помощью каналов (добавление контраста и четкости в фотографии с телесными оттенками)
12. Повышение резкости с помощью каналов
13. Уменьшение шума на изображении с помощью каналов

MI

Общее
Полное имя : D:\Андрей\Азбука работы с каналами в фотошопе.mp4
Формат : MPEG-4
Профиль формата : Base Media / Version 2
Идентификатор кодека : mp42
Размер файла : 341 Мбайт
Продолжительность : 2 ч. 0 м.
Общий поток : 396 Кбит/сек
Дата кодирования : UTC 2014-01-13 16:38:54
Дата пометки : UTC 2014-01-13 16:38:54
Видео
Идентификатор : 1
Формат : AVC
Формат/Информация : Advanced Video Codec
Профиль формата : [url=mailto:High@L3.1]High@L3.1[/url]
Параметр CABAC формата : Да
Параметр ReFrames формата : 4 кадра
Идентификатор кодека : avc1
Идентификатор кодека/Информация : Advanced Video Coding
Продолжительность : 2 ч. 0 м.
Продолжительность оригинала : 2 ч. 0 м.
Вид битрейта : Переменный
Битрейт : 301 Кбит/сек
Ширина : 1280 пикселей
Высота : 720 пикселей
Соотношение сторон : 16:9
Режим частоты кадров : Постоянный
Частота кадров : 10,000 кадров/сек
Цветовое пространство : YUV
Субдискретизация насыщенности : 4:2:0
Битовая глубина : 8 бит
Тип развёртки : Прогрессивная
Бит/(Пиксели*Кадры) : 0.033
Размер потока : 259 Мбайт (76%)
Размер потока оригинала : 259 Мбайт (76%)
Язык : English
Дата кодирования : UTC 2014-01-13 16:38:54
Дата пометки : UTC 2014-01-13 16:38:54
mdhd_Duration : 7224697
Основные цвета : BT.709
Характеристики трансфера : BT.709
Коэффициенты матрицы : BT.709
Аудио
Идентификатор : 2
Формат : AAC
Формат/Информация : Advanced Audio Codec
Профиль формата : LC
Идентификатор кодека : 40
Продолжительность : 2 ч. 0 м.
Продолжительность оригинала : 2 ч. 0 м.
Вид битрейта : Постоянный
Битрейт : 93,1 Кбит/сек
Каналы : 2 канала
Расположение каналов : Front: L R
Частота : 44,1 КГц
Метод сжатия : С потерями
Размер потока : 80,4 Мбайт (24%)
Размер потока оригинала : 80,4 Мбайт (24%)
Язык : English
Дата кодирования : UTC 2014-01-13 16:38:54
Дата пометки : UTC 2014-01-13 16:38:54
mdhd_Duration : 7245189
Скриншоты:
Скачать .torrent

Для того, чтобы скачать торрент-файл

Олег Накрошаев - Азбука работы с каналами в фотошопе (2014)

с нашего сайта, Вам необходимо Войти на сайт под своим логином! Если у Вас ещё нет логина, тогда Вам нужно сначала Зарегистрироваться!

Как скачивать? · Что такое торрент? · Рейтинг и ограничения

Показать сообщения:    
Ответить на тему

Олег Накрошаев - Азбука работы с каналами в фотошопе (2014) скачать торрент (torrent), видеоуроки, тренинги, обучающее видео и видеокурсы

Текущее время: Сегодня 00:52

Часовой пояс: GMT + 4



Вы не можете начинать темы
Вы не можете отвечать на сообщения
Вы не можете редактировать свои сообщения
Вы не можете удалять свои сообщения
Вы не можете голосовать в опросах
Вы не можете прикреплять файлы к сообщениям
Вы не можете скачивать файлы