Джереми Шубек - Выделение объекта в Photoshop CS6 (2014)

Ответить на тему
 
Автор Сообщение

Yulya ®

-Джереми Шубек - Выделение объекта в Photoshop CS6 (2014)- Автор (режиссер): Джереми Шубек
Жанр: Обучающие видеуроки
Продолжительность: 00:38:55
Качество видео: DVDRip
Видеокодек: MPEG4 (AVC)
Битрейт видео: ~997 Kbps
Размер кадра: 1152х720
Аудиокодек: AAC
Битрейт аудио: 152 Kbps, 2 ch
Описание:
Редактируя фотографии в Photoshop, часто приходится выделять объекты. С помощью выделения объекта можно изменить цвет, резкость, контрастность определенного фрагмента или фона и сделать еще много интересного.

Видеоуроки:

-Основы работы с волшебной палочкой
-Инструмент лассо
-Решение проблем
-Продвинутое использование волшебной палочки
-Тонкая настройка выделения
-Прямолинейное лассо
-Магнитное лассо
-Инструмент быстрого выделения
-Тонкая настройка выделения. Часть 2
-Фоновый слой
-Используем выделение
-Диапазон цвета
-Точечное выделение волос
-Метод “сэндвич”

MediaInfo

General
Complete name : 23. Основы работы с волшебной палочкой.mp4
Format : MPEG-4
Format profile : Base Media
Codec ID : isom
File size : 35.1 MiB
Duration : 4mn 15s
Overall bit rate : 1 153 Kbps
Encoded date : UTC 2010-12-16 18:39:50
Tagged date : UTC 2010-12-16 18:39:50
Writing application : Lavf51.12.1
Video
ID : 1
Format : AVC
Format/Info : Advanced Video Codec
Format profile : [url=mailto:Baseline@L3.1]Baseline@L3.1[/url]
Format settings, CABAC : No
Format settings, ReFrames : 1 frame
Codec ID : avc1
Codec ID/Info : Advanced Video Coding
Duration : 4mn 15s
Bit rate mode : Variable
Bit rate : 997 Kbps
Width : 1 152 pixels
Height : 720 pixels
Display aspect ratio : 1.600
Frame rate mode : Constant
Frame rate : 30.000 fps
Color space : YUV
Chroma subsampling : 4:2:0
Bit depth : 8 bits
Scan type : Progressive
Bits/(Pixel*Frame) : 0.040
Stream size : 30.4 MiB (86%)
Encoded date : UTC 2010-12-16 18:39:50
Tagged date : UTC 2010-12-16 18:39:50
Audio
ID : 2
Format : AAC
Format/Info : Advanced Audio Codec
Format profile : LC
Codec ID : 40
Duration : 4mn 15s
Bit rate mode : Variable
Bit rate : 152 Kbps
Channel(s) : 2 channels
Channel positions : Front: L R
Sampling rate : 44.1 KHz
Compression mode : Lossy
Stream size : 4.63 MiB (13%)
Encoded date : UTC 2010-12-16 18:39:50
Tagged date : UTC 2010-12-16 18:39:50
Скачать .torrent

Для того, чтобы скачать торрент-файл

Джереми Шубек - Выделение объекта в Photoshop CS6 (2014)

с нашего сайта, Вам необходимо Войти на сайт под своим логином! Если у Вас ещё нет логина, тогда Вам нужно сначала Зарегистрироваться!

Как скачивать? · Что такое торрент? · Рейтинг и ограничения

Показать сообщения:    
Ответить на тему

Джереми Шубек - Выделение объекта в Photoshop CS6 (2014) скачать торрент (torrent), видеоуроки, тренинги, обучающее видео и видеокурсы

Текущее время: Сегодня 14:37

Часовой пояс: GMT + 4



Вы не можете начинать темы
Вы не можете отвечать на сообщения
Вы не можете редактировать свои сообщения
Вы не можете удалять свои сообщения
Вы не можете голосовать в опросах
Вы не можете прикреплять файлы к сообщениям
Вы не можете скачивать файлы