Мастер-класс - Абонемент. Свадьба от съёмки до обработки (2013)

Ответить на тему
 
Автор Сообщение

Yulya ®

-Мастер-класс - Абонемент. Свадьба от съёмки до обработки (2013)- Автор (режиссер): Мастер-класс
Жанр: Обучающие видеуроки
Продолжительность: 10:12:45
Качество видео: PCRec
Видеокодек: MPEG4 (AVC)
Битрейт видео: ~752 Kbps
Размер кадра: 1280х720
Аудиокодек: AAC
Битрейт аудио: 160 Kbps, 2 ch
Описание:
Многие считают, что после съёмки свадьбы вся самая тяжёлая работа для фотографа позади и ему остаётся сделать только пустяковые формальности. Спешим вас разуверить — не всё так элементарно. О том, как на самом деле обстоят дела свадебного фотографа и что часто от него просит заказчик, вы и узнаете в мастер-классах абонемента " Свадьба от съёмки до обработки ". Пройдите весь путь свадебного фотографа от А до Я!

Содержание:

1. «Вёрстка книги за час. 5 секретов быстрого создания макетов»
*Принципы предпечатной подготовки
*Основные программы для быстрой вёрстки книг, в том числе онлайн
*Где напечатать и как подготовить файлы для этого
*Обзор компаний, где можно это сделать
*3 простых шага для создания идеальной книги
*5 основных ошибок при печати и как их избежать
2. «Обработка свадебной фотографии»
*Удобный способ отбора фотографий (как удалять лишние кадры быстро и как оставить лучшее)
*Пакетная обработка (как группировать фотографии и подбирать для выделенной группы фотографий правильный способ обработки)
*Кадрирование и проработка каждой фотографии
*Удаление прыщей, ретушь, тонирование, исправление дефектов в линз
*Детальная обработка: убираем мелкие недочеты, прорабатываем детали, корректируем фигуру и добавляем сияние коже
*Спецэффекты, блики, лучи солнца и прочие дополнительные элементы, которыми вы можете улучшить фотографию
3. «Съёмка в ЗАГСе: все «за» и «против»
*все пары регистрируют брак в ЗАГСе, как же снять этот процесс красиво
*что делать/не делать на съёмке в ЗАГСе
*на что снимать и чем светить
*красивая альтернатива невзрачным отделам ЗАГСа
*как ловить эмоции в суматохе торжества
*обработка снимков, сделанных в условиях сложного освещения
4. «Используем вспышки при съёмке свадьбы»
*Доступный свет или вспышка: что лучше и что когда применять. Когда уместно использовать вспышку, а когда нет
*Арсенал свадебного фотографа (какие вспышки использовать в работе, на чем экономить, а на чем нет, необходимые насадки и их применение, понятие TTL и скоростная синхронизация вспышек)
*Создаём дорогую свадебную картинку с помощью вспышек: улучшаем качество, не теряя в скорости
*Разбор примеров с реальных свадебных и семейных съёмок. Где, как и когда использовались вспышки, применение простых и сложных схем света на практике в зависимости от задачи и обстоятельств
*Креативная составляющая работы со вспышками на свадьбе
5. «Принципы создания ярких визуальных историй»
Съемка:
*Сценарий съемки
*Обязательные кадры, широта охвата темы
*Съемка под конкретную задачу
*Импровизация
*Работа с отснятым материалом:
Отбор фотографий:
*Схема изложения сюжета
*Особенности редактирования, под данную серию.
*Создаем серию и делаем ее интересной и повествовательной
*Что в итоге получилось

Mediainfo:

General
Complete name : 1. Вёрстка книги за час. 5 секретов быстрого создания макетов (Дмитрий Федотов).mp4
Format : MPEG-4
Format profile : Base Media / Version 2
Codec ID : mp42
File size : 826 MiB
Duration : 2h 5mn
Overall bit rate : 917 Kbps
Encoded date : UTC 2014-02-10 20:43:07
Tagged date : UTC 2014-02-10 20:43:07
Video
ID : 1
Format : AVC
Format/Info : Advanced Video Codec
Format profile : [url=mailto:High@L3.1]High@L3.1[/url]
Format settings, CABAC : Yes
Format settings, ReFrames : 4 frames
Codec ID : avc1
Codec ID/Info : Advanced Video Coding
Duration : 2h 5mn
Bit rate mode : Variable
Bit rate : 752 Kbps
Width : 1 280 pixels
Height : 720 pixels
Display aspect ratio : 16:9
Frame rate mode : Constant
Frame rate : 29.970 fps
Color space : YUV
Chroma subsampling : 4:2:0
Bit depth : 8 bits
Scan type : Progressive
Bits/(Pixel*Frame) : 0.027
Stream size : 678 MiB (82%)
Writing library : x264 core 140 r2377 1ca7bb9
Encoding settings : cabac=1 / ref=3 / deblock=1:0:0 / analyse=0x3:0x113 / me=hex / subme=7 / psy=1 / psy_rd=1.00:0.00 / mixed_ref=1 / me_range=16 / chroma_me=1 / trellis=1 / 8x8dct=1 / cqm=0 / deadzone=21,11 / fast_pskip=1 / chroma_qp_offset=-2 / threads=12 / lookahead_threads=2 / sliced_threads=0 / nr=0 / decimate=1 / interlaced=0 / bluray_compat=0 / stitchable=1 / constrained_intra=0 / bframes=3 / b_pyramid=2 / b_adapt=1 / b_bias=0 / direct=1 / weightb=1 / open_gop=0 / weightp=2 / keyint=90 / keyint_min=30 / scenecut=40 / intra_refresh=0 / rc_lookahead=40 / rc=crf / mbtree=1 / crf=20.0 / qcomp=0.60 / qpmin=5 / qpmax=69 / qpstep=4 / vbv_maxrate=3750 / vbv_bufsize=12500 / crf_max=0.0 / nal_hrd=none / filler=0 / ip_ratio=1.40 / aq=1:1.00
Encoded date : UTC 2014-02-10 20:43:07
Tagged date : UTC 2014-02-10 20:43:07
Audio
ID : 2
Format : AAC
Format/Info : Advanced Audio Codec
Format profile : LC
Codec ID : 40
Duration : 2h 5mn
Bit rate mode : Variable
Bit rate : 160 Kbps
Channel(s) : 2 channels
Channel positions : Front: L R
Sampling rate : 48.0 KHz
Compression mode : Lossy
Stream size : 144 MiB (17%)
Encoded date : UTC 2014-02-10 20:43:07
Tagged date : UTC 2014-02-10 20:43:07
Скачать .torrent

Для того, чтобы скачать торрент-файл

Мастер-класс - Абонемент. Свадьба от съёмки до обработки (2013)

с нашего сайта, Вам необходимо Войти на сайт под своим логином! Если у Вас ещё нет логина, тогда Вам нужно сначала Зарегистрироваться!

Как скачивать? · Что такое торрент? · Рейтинг и ограничения

Показать сообщения:    
Ответить на тему

Мастер-класс - Абонемент. Свадьба от съёмки до обработки (2013) скачать торрент (torrent), видеоуроки, тренинги, обучающее видео и видеокурсы

Текущее время: Сегодня 03:24

Часовой пояс: GMT + 4



Вы не можете начинать темы
Вы не можете отвечать на сообщения
Вы не можете редактировать свои сообщения
Вы не можете удалять свои сообщения
Вы не можете голосовать в опросах
Вы не можете прикреплять файлы к сообщениям
Вы не можете скачивать файлы