Специалист - Как стать экспертом в AutoCAD (2014)

Ответить на тему
 
Автор Сообщение

Yulya ®

-Специалист - Как стать экспертом в AutoCAD (2014)- Автор (режиссер): "Специалист"
Жанр: Обучающие видеуроки
Продолжительность: 01:21:00
Качество видео: PCRec
Видеокодек: MPEG4 (AVC)
Битрейт видео: ~1 030 Kbps
Размер кадра: 1280х720
Аудиокодек: AAC
Битрейт аудио: 192 Kbps, 2 ch
Описание:
На видео Центра компьютерного обучения "Специалист" при МГТУ имени Н.Э. Баумана "Как стать экспертом по AutoCAD" вы узнаете о конкретных требованиях предъявляемых работодателями к специалистам, применяющим в своей работе AutoCAD, а также о том, как стать таким профессионалом и действительно хорошо знать и отлично владеть AutoCAD. В ходе видеоа вы увидите как работать в AutoCAD. Вам будет продемонстрировано богатство приемов работы с AutoCAD, а также постепенный профессиональный рост пользователя AutoCAD, который начинает свою работу с AutoCAD с создания простейших чертежей и постепенно доходит до реализации 3D-моделей.

MediaInfo:

General
Complete name : exsAuCD.mp4
Format : MPEG-4
Format profile : Base Media / Version 2
Codec ID : mp42
File size : 713 MiB
Duration : 1h 21mn
Overall bit rate : 1 225 Kbps
Encoded date : UTC 2014-03-03 09:16:18
Tagged date : UTC 2014-03-03 09:16:18
Video
ID : 1
Format : AVC
Format/Info : Advanced Video Codec
Format profile : [url=mailto:High@L3.1]High@L3.1[/url]
Format settings, CABAC : Yes
Format settings, ReFrames : 1 frame
Codec ID : avc1
Codec ID/Info : Advanced Video Coding
Duration : 1h 21mn
Bit rate mode : Variable
Bit rate : 1 030 Kbps
Maximum bit rate : 3 728 Kbps
Width : 1 280 pixels
Height : 720 pixels
Display aspect ratio : 16:9
Frame rate mode : Constant
Frame rate : 25.000 fps
Color space : YUV
Chroma subsampling : 4:2:0
Bit depth : 8 bits
Scan type : Progressive
Bits/(Pixel*Frame) : 0.045
Stream size : 600 MiB (84%)
Tagged date : UTC 2014-03-03 09:18:45
Audio
ID : 2
Format : AAC
Format/Info : Advanced Audio Codec
Format profile : LC
Codec ID : 40
Duration : 1h 21mn
Bit rate mode : Variable
Bit rate : 192 Kbps
Maximum bit rate : 202 Kbps
Channel(s) : 2 channels
Channel positions : Front: L R
Sampling rate : 44.1 KHz
Compression mode : Lossy
Stream size : 112 MiB (16%)
Title : IsoMedia File Produced by Google, 5-11-2011
Encoded date : UTC 2014-03-03 09:17:46
Tagged date : UTC 2014-03-03 09:18:45
Скачать .torrent

Для того, чтобы скачать торрент-файл

Специалист - Как стать экспертом в AutoCAD (2014)

с нашего сайта, Вам необходимо Войти на сайт под своим логином! Если у Вас ещё нет логина, тогда Вам нужно сначала Зарегистрироваться!

Как скачивать? · Что такое торрент? · Рейтинг и ограничения

Показать сообщения:    
Ответить на тему

Специалист - Как стать экспертом в AutoCAD (2014) скачать торрент (torrent), видеоуроки, тренинги, обучающее видео и видеокурсы

Текущее время: Сегодня 02:57

Часовой пояс: GMT + 4



Вы не можете начинать темы
Вы не можете отвечать на сообщения
Вы не можете редактировать свои сообщения
Вы не можете удалять свои сообщения
Вы не можете голосовать в опросах
Вы не можете прикреплять файлы к сообщениям
Вы не можете скачивать файлы