Последнее из V.I.P.-раздела

07-Авг
07-Авг
07-Авг
07-Авг
07-Авг
07-Авг
07-Авг
07-Авг
07-Авг
07-Авг
07-Авг
07-Авг
07-Авг
07-Авг
07-Авг
07-Авг
07-Авг
07-Авг
07-Авг
07-Авг

Новости о коронавирусе

Андрей Бернацкий, Андрей Кудлай - WordPress-Мастер: от личного блога до премиум шаблона (2014)

Ответить на тему
 
Автор Сообщение

Yulya ®

-Андрей Бернацкий, Андрей Кудлай - WordPress-Мастер: от личного блога до премиум шаблона (2014)- Автор (режиссер): Андрей Бернацкий, Андрей Кудлай
Жанр: Обучающий видеокурс
Продолжительность: 21:41:12
Качество видео: PCRec
Видеокодек: AVC
Битрейт видео: ~15fps 167kbps
Размер кадра: 1024x768
Аудиокодек: AAC
Битрейт аудио: 44100Hz stereo 124kbps
Доп. материалы: Есть
Описание:
Желаете с нуля обучиться делать блоги и веб ресурсы на Вордпрессе с индивидуальным дизайном? На данный момент WordPress-Мастер: от личного блога до премиум шаблона единственный и уникальный в Руинтернете практический курс по созданию Вордпресс-шаблонов любой сложности от проф. веб-разработчиков — Андрея Бернацкого и Андрея Кудлая.
Курс содержит 2 раздела (уровня) — уровень СПЕЦИАЛИСТ (для начинающих) и уровень ГУРУ (для более проф веб-разработки). Разделы обоюдно дополняют друг дружку и дают подробные знания по теме создания и верстки wordpress-шаблона с нуля и до конечного результата.

Дополнительная информация:

После прохождения курса вы узнаете:
• После изучения видеокурса, вы с полного нуля создадите свою уникальную тему Премиум-уровня…
• С вашим неповторимым дизайном и набором функций
• Изучив наш курс, вы увидите «вживую», как создается верстка сайта, и сможете понять весь процесс изнутри…
• И самое главное – сможете правильно применять свои знания и делать верстку макетов любой сложности!
• Вы научитесь делать качественную верстку, которая всегда и при любых обстоятельствах позволит сайту выглядеть красиво
• В нашем курсе показано, как создать с нуля и затем установить три совершенно не похожие друг на друга верстки на движок WordPress
В формате пошаговых видеоуроков рассмотрен процесс работы с тремя непохожими друг на друга шаблонами WordPress:
• Шаблоном личного блога
• Премиум-шаблоном сайта-портфолио и
• Премиум-шаблоном корпоративного сайта
Вы узнаете, как любые создаваемые вами темы сделать «дружественными» к любым мобильным устройствам: от смартфонов и фаблетов до планшетов и ультрабуков
После изучения этого видеокурса вы гарантировано научитесь проектировать с самых ранних этапов темы для WordPress идеально подходящие для мобильных устройств!

MI

Общее
Полное имя : D:\Андрей\WordPress-Мастер\disk1\Нарезка и вёрстка макета\Part1\Lesson1.mp4
Формат : MPEG-4
Профиль формата : Base Media / Version 2
Идентификатор кодека : mp42
Размер файла : 14,6 Мбайт
Продолжительность : 6 м. 55 с.
Общий поток : 294 Кбит/сек
Дата кодирования : UTC 2014-01-26 08:00:26
Дата пометки : UTC 2014-01-26 08:00:26
Видео
Идентификатор : 1
Формат : AVC
Формат/Информация : Advanced Video Codec
Профиль формата : [url=mailto:High@L4.0]High@L4.0[/url]
Параметр CABAC формата : Да
Параметр ReFrames формата : 4 кадра
Идентификатор кодека : avc1
Идентификатор кодека/Информация : Advanced Video Coding
Продолжительность : 6 м. 55 с.
Продолжительность оригинала : 6 м. 55 с.
Вид битрейта : Переменный
Битрейт : 167 Кбит/сек
Ширина : 1024 пикселя
Высота : 768 пикселей
Соотношение сторон : 4:3
Режим частоты кадров : Постоянный
Частота кадров : 15,000 кадров/сек
Цветовое пространство : YUV
Субдискретизация насыщенности : 4:2:0
Битовая глубина : 8 бит
Тип развёртки : Прогрессивная
Бит/(Пиксели*Кадры) : 0.014
Размер потока : 8,30 Мбайт (57%)
Размер потока оригинала : 8,30 Мбайт (57%)
Язык : English
Дата кодирования : UTC 2014-01-26 08:00:26
Дата пометки : UTC 2014-01-26 08:00:26
mdhd_Duration : 415097
Основные цвета : BT.709
Характеристики трансфера : BT.709
Коэффициенты матрицы : BT.709
Аудио
Идентификатор : 2
Формат : AAC
Формат/Информация : Advanced Audio Codec
Профиль формата : LC
Идентификатор кодека : 40
Продолжительность : 6 м. 55 с.
Продолжительность оригинала : 6 м. 55 с.
Вид битрейта : Постоянный
Битрейт : 124 Кбит/сек
Каналы : 2 канала
Расположение каналов : Front: L R
Частота : 44,1 КГц
Метод сжатия : С потерями
Размер потока : 6,15 Мбайт (42%)
Размер потока оригинала : 6,15 Мбайт (42%)
Язык : English
Дата кодирования : UTC 2014-01-26 08:00:26
Дата пометки : UTC 2014-01-26 08:00:26
mdhd_Duration : 415095
Скриншоты:
Скачать .torrent

Для того, чтобы скачать торрент-файл

Андрей Бернацкий, Андрей Кудлай - WordPress-Мастер: от личного блога до премиум шаблона (2014)

с нашего сайта, Вам необходимо Войти на сайт под своим логином! Если у Вас ещё нет логина, тогда Вам нужно сначала Зарегистрироваться!

Как скачивать? · Что такое торрент? · Рейтинг и ограничения

Star911

Приветствую.
Встаньте, пожалуйста, кто-нибудь на раздачу.
Спасибо большое заранее :-)
Показать сообщения:    
Ответить на тему

Андрей Бернацкий, Андрей Кудлай - WordPress-Мастер: от личного блога до премиум шаблона (2014) скачать торрент (torrent), видеоуроки, тренинги, обучающее видео и видеокурсы

Текущее время: Сегодня 01:22

Часовой пояс: GMT + 4



Вы не можете начинать темы
Вы не можете отвечать на сообщения
Вы не можете редактировать свои сообщения
Вы не можете удалять свои сообщения
Вы не можете голосовать в опросах
Вы не можете прикреплять файлы к сообщениям
Вы не можете скачивать файлы