Джереми Шубек - Видеоуроки по цветовой коррекции в Photoshop CS6 (2014)

Ответить на тему
 
Автор Сообщение

Yulya ®

-Джереми Шубек - Видеоуроки по цветовой коррекции в Photoshop CS6 (2014)- Автор (режиссер): Джереми Шубек
Жанр: Обучающие видеуроки
Продолжительность: 00:47:32
Качество видео: DVDRip
Видеокодек: MPEG4 (AVC)
Битрейт видео: ~1 347 Kbps
Размер кадра: 1152х720
Аудиокодек: AAC
Битрейт аудио: 152 Kbps, 2 ch
Описание:
Возможности Photoshop в области цветокоррекции очень велики, но не безграничны. Фотографию из бабушкиного архива вы не доведете до уровня современной студийной съемки. Если все сюжетно важные детали изображения безнадежно утонули в тенях, программе неоткуда будет их взять. Но из того малого, что есть в плохой фотографии, можно сделать вполне приемлемое изображение. А хороший исходный материал позволит получить отличную профессиональную фотографию.
Видеоуроки:
  • Базовая цветовая коррекция
  • 3 измерения цвета
  • О кривых
  • За пределами автоматических настроек кривых
  • Продвинутые техники работы с кривыми
  • Смена цветов
  • Рисование в цвете
  • Рисование в цвете. Часть 2
  • Черно-белые изображения
  • Заключение о цвете

MediaInfo:

General
Complete name : 37. Базовая цветовая коррекция.mp4
Format : MPEG-4
Format profile : Base Media
Codec ID : isom
File size : 46.8 MiB
Duration : 4mn 21s
Overall bit rate : 1 504 Kbps
Encoded date : UTC 2010-12-16 18:32:51
Tagged date : UTC 2010-12-16 18:32:51
Writing application : Lavf51.12.1
Video
ID : 1
Format : AVC
Format/Info : Advanced Video Codec
Format profile : [url=mailto:Baseline@L3.1]Baseline@L3.1[/url]
Format settings, CABAC : No
Format settings, ReFrames : 1 frame
Codec ID : avc1
Codec ID/Info : Advanced Video Coding
Duration : 4mn 21s
Bit rate mode : Variable
Bit rate : 1 347 Kbps
Width : 1 152 pixels
Height : 720 pixels
Display aspect ratio : 1.600
Frame rate mode : Constant
Frame rate : 30.000 fps
Color space : YUV
Chroma subsampling : 4:2:0
Bit depth : 8 bits
Scan type : Progressive
Bits/(Pixel*Frame) : 0.054
Stream size : 41.9 MiB (90%)
Encoded date : UTC 2010-12-16 18:32:51
Tagged date : UTC 2010-12-16 18:32:51
Audio
ID : 2
Format : AAC
Format/Info : Advanced Audio Codec
Format profile : LC
Codec ID : 40
Duration : 4mn 21s
Bit rate mode : Variable
Bit rate : 152 Kbps
Channel(s) : 2 channels
Channel positions : Front: L R
Sampling rate : 44.1 KHz
Compression mode : Lossy
Stream size : 4.73 MiB (10%)
Encoded date : UTC 2010-12-16 18:32:51
Tagged date : UTC 2010-12-16 18:32:51
Скачать .torrent

Для того, чтобы скачать торрент-файл

Джереми Шубек - Видеоуроки по цветовой коррекции в Photoshop CS6 (2014)

с нашего сайта, Вам необходимо Войти на сайт под своим логином! Если у Вас ещё нет логина, тогда Вам нужно сначала Зарегистрироваться!

Как скачивать? · Что такое торрент? · Рейтинг и ограничения

Показать сообщения:    
Ответить на тему

Джереми Шубек - Видеоуроки по цветовой коррекции в Photoshop CS6 (2014) скачать торрент (torrent), видеоуроки, тренинги, обучающее видео и видеокурсы

Текущее время: Сегодня 20:03

Часовой пояс: GMT + 4



Вы не можете начинать темы
Вы не можете отвечать на сообщения
Вы не можете редактировать свои сообщения
Вы не можете удалять свои сообщения
Вы не можете голосовать в опросах
Вы не можете прикреплять файлы к сообщениям
Вы не можете скачивать файлы