Джереми Шубек - Сверхмощный видеокурс по Photoshop CS6 (2013)

Ответить на тему
 
Автор Сообщение

Yulya ®

-Джереми Шубек - Сверхмощный видеокурс по Photoshop CS6 (2013)- Автор (режиссер): Джереми Шубек
Жанр: Обучающий
Язык: Русский
Продолжительность: 04:03:43
Качество видео: PCRec
Видеокодек: MPEG4 (AVC)
Битрейт видео: ~2 268 Kbps
Размер кадра: 1152х720
Аудиокодек: AAC
Битрейт аудио: 152 Kbps, 2 ch
Описание:
Видеокурс сделан в первую очередь для новичков. Вы начнете изучать курс с самых базовых начал, которые полезно вспомнить и более продвинутым пользователям: интерфейс фотошопа, горячие клавиши, добавление текста, работа с изображениями, и многое другое.
Вы научитесь работать слоями, поймете, как объединять несколько изображений, изменять их размер, разделять на части и объединять цвета. Вы изучите селекцию, возможности выделения изображения из фотографии и закончите тем, что сможете выделять отдельные пряди волос и изменять фон. Работа с цветовой коррекцией начнется с основ и закончится профессиональными приемами. Вы научитесь исправлять сложные фотографии, изменять цвета отдельных элементов и даже оборачивать часть цветов изображения в черно-белое.

Содержание видеокурса:

Серия уроков №1. Введение
-Введение в курс “Сверхмощный видеокурс по Photoshop CS6”
Серия уроков №2 Понимание базовых основ
-Организация рабочего пространства
-Главные горячие клавиши
-Добавление текста
-Добавление и трансформирование изображений
-Флажок авто-выбора
Серия уроков №3. Слои
-Понимание слоев
-Выравнивание слоев
-Отмена действий в панели истории
-Смарт-объекты против нормальных слоев
-Размер холста против размера изображения
-Создание копий при помощи клавиши Alt
-Флиппинг слои
-Модификаторы инструментов трансформации
-Связывание слоев
-Группировка слоев
-Объединение групп
-Не объединенные слои
-Разделение изображения
-Добавление цветных зон
-Подведение итогов по теме слоев
Серия уроков №4. Выделение
-Основы работы с волшебной палочкой
-Инструмент лассо
-Решение проблем
-Продвинутое использование волшебной палочки
-Тонкая настройка выделения
-Прямолинейное лассо
-Магнитное лассо
-Инструмент быстрого выделения
-Тонкая настройка выделения. Часть 2
-Фоновый слой
-Используем выделение
-Диапазон цвета
-Точечное выделение волос
-Метод “сэндвич”
Серия уроков №5. Цветовая коррекция
-Базовая цветовая коррекция
-3 измерения цвета
-О кривых
-За пределами автоматических настроек кривых
-Продвинутые техники работы с кривыми
-Смена цветов
-Рисование в цвете
-Рисование в цвете. Часть 2
-Черно-белые изображения
-Заключение о цвете
Серия уроков №6. Удаление объекта
-Штамп клонирования
-Пыль и царапины
-Горячие клавиши кисти
-Восстанавливающая кисть
-Сохранение края
-Точечная восстанавливающая кисть
-Сложные края
-Что еще использовать кроме клонирования?
-Сохранение
-Размер изображения
Серия уроков №7. Ретушь
-Удаление морщин
-Изменение размера частей тела
-Сглаживание кожи
-Естественное исправление
-Исправление эффекта красных глаз
-Кадрирование
Серия уроков №8. Композиция
-Изолирование объектов
-Объединение объектов
-Архивирование
-Удаление человека
-Добавление человека
Серия уроков №9
-Сворачиваемся!

MediaInfo:

General
Complete name : 02. Понимание базовых основ\03. Организация рабочего пространства.mp4
Format : MPEG-4
Format profile : Base Media
Codec ID : isom
File size : 37.6 MiB
Duration : 2mn 9s
Overall bit rate : 2 424 Kbps
Encoded date : UTC 2013-08-07 14:46:46
Tagged date : UTC 2013-08-07 14:46:46
Writing application : Lavf51.12.1
Video
ID : 1
Format : AVC
Format/Info : Advanced Video Codec
Format profile : [url=mailto:Baseline@L3.1]Baseline@L3.1[/url]
Format settings, CABAC : No
Format settings, ReFrames : 1 frame
Codec ID : avc1
Codec ID/Info : Advanced Video Coding
Duration : 2mn 9s
Bit rate mode : Variable
Bit rate : 2 268 Kbps
Width : 1 152 pixels
Height : 720 pixels
Display aspect ratio : 1.600
Frame rate mode : Constant
Frame rate : 30.000 fps
Color space : YUV
Chroma subsampling : 4:2:0
Bit depth : 8 bits
Scan type : Progressive
Bits/(Pixel*Frame) : 0.091
Stream size : 35.1 MiB (94%)
Encoded date : UTC 2013-08-07 14:46:46
Tagged date : UTC 2013-08-07 14:46:46
Audio
ID : 2
Format : AAC
Format/Info : Advanced Audio Codec
Format profile : LC
Codec ID : 40
Duration : 2mn 9s
Bit rate mode : Variable
Bit rate : 152 Kbps
Channel(s) : 2 channels
Channel positions : Front: L R
Sampling rate : 44.1 KHz
Compression mode : Lossy
Stream size : 2.36 MiB (6%)
Encoded date : UTC 2013-08-07 14:46:46
Tagged date : UTC 2013-08-07 14:46:46
Скачать .torrent

Для того, чтобы скачать торрент-файл

Джереми Шубек - Сверхмощный видеокурс по Photoshop CS6 (2013)

с нашего сайта, Вам необходимо Войти на сайт под своим логином! Если у Вас ещё нет логина, тогда Вам нужно сначала Зарегистрироваться!

Как скачивать? · Что такое торрент? · Рейтинг и ограничения

Показать сообщения:    
Ответить на тему

Джереми Шубек - Сверхмощный видеокурс по Photoshop CS6 (2013) скачать торрент (torrent), видеоуроки, тренинги, обучающее видео и видеокурсы

Текущее время: Сегодня 01:55

Часовой пояс: GMT + 4



Вы не можете начинать темы
Вы не можете отвечать на сообщения
Вы не можете редактировать свои сообщения
Вы не можете удалять свои сообщения
Вы не можете голосовать в опросах
Вы не можете прикреплять файлы к сообщениям
Вы не можете скачивать файлы