Wikisound.org - Полное изучение синтезатора Sylenth1 (2013)

Ответить на тему
 
Автор Сообщение

Yulya ®

-Wikisound.org - Полное изучение синтезатора Sylenth1 (2013)- Автор (режиссер): Wikisound.org
Жанр: Звукорежиссура
Язык: Русский
Продолжительность: 03:16:34
Качество видео: PCRec
Видеокодек: AVC/H.264
Битрейт видео: 1 967 Kbps (VBR), 15.000 fps
Размер кадра: 1280x720, 16:9
Аудиокодек: AAC
Битрейт аудио: 192 Kbps (VBR), 2 channels, 44.1 KHz
Описание: ЧТО ДАСТ ВАМ КУРС ПО СИНТЕЗАТОРУ SYLENTH1?
Ясность и понимание параметров синтезатора, в курсе наглядно показано как работают и на что влияют все ручки и кнопки.
В вашей власти окажется инструмент который используют очень многие звёзды электронной музыки, нет ни одного электронного музыканта кто бы не знал про этот синтезатор.
Вы сможете легко получать звуки треков находящихся в верхних списках топов. Причём сделать их в этом синтезаторе очень быстро благодаря интуитивному интерфейсу.

Дополнительная информация:

Теперь, садясь писать музыку вы не будите крутить наугад и гадать на что влияет определённый параметр.
Посмотрев данный курс вы получите понимание инструмента с помощью которого создаются хиты, и вы сможете реализовать свой творческий потенциал в максимальной степени. Таким образом ваша музыка начнёт выделятся среди общей массы музыкантов.
Верное и последовательное понимание всех функции синтезатора, они объяснены подробно и наглядно.
Вам откроются новые возможности синтеза — это 100% даст новый творческий толчок.

Содержание:

Основной курс
01 Параметры осцилляторов
02 Амплитудная огибающая (ADSR)
03 Части А и В
04 Фильтры
05 Модуляционные огибающие
06 Низкочастотный осциллятор LFO
07 Дополнительные источники модуляции
08 Работа с колёсами и скольжение
09 Верхняя панель
10 Арпеджиатор
11 Искажения
12 Фэйзер
13 Хорус
14 Эквалайзер
15 Задержка (Delay)
16 Ревербератор
17 Компрессор
18 Панель инструментов
Бонус
01 Синтез ACID звуков
02 Синтез лида (Avicii style)
03 Синтез плаков стрингов (Deadmau5 style)
04 Секреты жирного звука
05 Секреты широкого звука
06 Синтез говорящего баса
07 Создание трансового баса

MediaInfo:

General
Complete name : D:\Сведение\Wikisound.org - Полное изучение синтезатора Sylenth1\01-Руководство по синтезатору\01 Параметры осцилляторов.mp4
Format : MPEG-4
Format profile : Base Media / Version 2
Codec ID : mp42
File size : 294 MiB
Duration : 19mn 0s
Overall bit rate : 2 160 Kbps
Encoded date : UTC 2013-07-03 10:12:13
Tagged date : UTC 2013-07-03 10:12:16
©TIM : 00:00:00:00
©TSC : 15
©TSZ : 1
Video
ID : 1
Format : AVC
Format/Info : Advanced Video Codec
Format profile : [url=mailto:Main@L3.2]Main@L3.2[/url]
Format settings, CABAC : Yes
Format settings, ReFrames : 3 frames
Codec ID : avc1
Codec ID/Info : Advanced Video Coding
Duration : 19mn 0s
Bit rate mode : Variable
Bit rate : 1 967 Kbps
Width : 1 280 pixels
Height : 720 pixels
Display aspect ratio : 16:9
Frame rate mode : Variable
Frame rate : 15.000 fps
Minimum frame rate : 15.000 fps
Maximum frame rate : 15.008 fps
Standard : NTSC
Color space : YUV
Chroma subsampling : 4:2:0
Bit depth : 8 bits
Scan type : Progressive
Bits/(Pixel*Frame) : 0.142
Stream size : 267 MiB (91%)
Language : English
Encoded date : UTC 2013-07-03 10:12:13
Tagged date : UTC 2013-07-03 10:12:13
Audio
ID : 2
Format : AAC
Format/Info : Advanced Audio Codec
Format version : Version 4
Format profile : LC
Format settings, SBR : No
Codec ID : 40
Duration : 19mn 0s
Bit rate mode : Variable
Bit rate : 192 Kbps
Maximum bit rate : 307 Kbps
Channel(s) : 2 channels
Channel positions : Front: L R
Sampling rate : 44.1 KHz
Stream size : 25.8 MiB (9%)
Language : English
Encoded date : UTC 2013-07-03 10:12:13
Tagged date : UTC 2013-07-03 10:12:13
Скачать .torrent

Для того, чтобы скачать торрент-файл

Wikisound.org - Полное изучение синтезатора Sylenth1 (2013)

с нашего сайта, Вам необходимо Войти на сайт под своим логином! Если у Вас ещё нет логина, тогда Вам нужно сначала Зарегистрироваться!

Как скачивать? · Что такое торрент? · Рейтинг и ограничения

Показать сообщения:    
Ответить на тему

Wikisound.org - Полное изучение синтезатора Sylenth1 (2013) скачать торрент (torrent), видеоуроки, тренинги, обучающее видео и видеокурсы

Текущее время: Сегодня 18:26

Часовой пояс: GMT + 4



Вы не можете начинать темы
Вы не можете отвечать на сообщения
Вы не можете редактировать свои сообщения
Вы не можете удалять свои сообщения
Вы не можете голосовать в опросах
Вы не можете прикреплять файлы к сообщениям
Вы не можете скачивать файлы